imdb
rating

6.5
The Boy

The Boy (2014)

Action, Drama, Thriller

Full description
quality   dvdrip screener

Nicki Minaj Ft. Cassie - The Boys (h264/mp4)

Size 123.867 MB   2 seeders     Added 2012-12-22 23:55:41

Stream torrent
Starting‥ You need BitLord! Get it from BitLord.com
To download or stream you need BitLord. Visit them at BitLord.com
General

Format                         : MPEG-4
Format profile                 : Base Media
Codec ID                       : isom
File size                      : 118 MiB
Duration                       : 4mn 47s
Overall bit rate mode          : Variable
Overall bit rate               : 3 447 Kbps
Encoded date                   : UTC 2012-11-15 02:11:36
Tagged date                    : UTC 2012-11-15 02:11:36

Video
ID                             : 1
Format                         : AVC
Format/Info                    : Advanced Video Codec
Format profile                 : High@L3.0
Format settings, CABAC         : Yes
Format settings, ReFrames      : 2 frames
Codec ID                       : avc1
Codec ID/Info                  : Advanced Video Coding
Duration                       : 4mn 47s
Bit rate                       : 3 259 Kbps
Maximum bit rate               : 5 894 Kbps
Width                          : 720 pixels
Height                         : 480 pixels
Display aspect ratio           : 16:9
Original display aspect ratio  : 16:9
Frame rate mode                : Constant
Frame rate                     : 23.976 fps
Standard                       : NTSC
Color space                    : YUV
Chroma subsampling             : 4:2:0
Bit depth                      : 8 bits
Scan type                      : Progressive
Bits/(Pixel*Frame)             : 0.393
Stream size                    : 112 MiB (95%)


Audio
ID                             : 2
Format                         : AAC
Format/Info                    : Advanced Audio Codec
Format profile                 : LC
Codec ID                       : 40
Duration                       : 4mn 47s
Bit rate mode                  : Variable
Bit rate                       : 184 Kbps
Maximum bit rate               : 223 Kbps
Channel(s)                     : 2 channels
Channel positions              : Front: L R
Sampling rate                  : 44.1 KHz
Compression mode               : Lossy
Stream size                    : 6.32 MiB (5%)		
NickiMinajFt.Cassie-TheBoys-musicvideos-hq.net.mp4 123.867 MB
Gathering some info...

Register and log in Isohunt and see no captcha anymore!

4000 symbols left
Hash 94DE87F8783228F26EB03EBE5CFC3043A024606D

Related torrents for "Nicki Minaj Ft. Cassie - The Boys (h264/mp4)"

Torrent search:

h264