Mana Ft. Jorge Y Mateus - Voce E Minha Religiao (h264/mp4)

Size 79.935 MB   10 seeders     Added 2012-12-22 23:55:45

Stream torrent
Starting‚Ä• You need BitLord! Get it from BitLord.com
To download or stream you need BitLord. Visit them at BitLord.com
General

Format                         : MPEG-4
Format profile                 : Base Media
Codec ID                       : isom
File size                      : 76.2 MiB
Duration                       : 4mn 30s
Overall bit rate mode          : Variable
Overall bit rate               : 2 363 Kbps
Encoded date                   : UTC 2012-12-09 17:22:13
Tagged date                    : UTC 2012-12-09 17:22:13

Video
ID                             : 1
Format                         : AVC
Format/Info                    : Advanced Video Codec
Format profile                 : High@L3.0
Format settings, CABAC         : Yes
Format settings, ReFrames      : 2 frames
Codec ID                       : avc1
Codec ID/Info                  : Advanced Video Coding
Duration                       : 4mn 30s
Bit rate                       : 2 168 Kbps
Maximum bit rate               : 5 270 Kbps
Width                          : 720 pixels
Height                         : 480 pixels
Display aspect ratio           : 16:9
Original display aspect ratio  : 16:9
Frame rate mode                : Constant
Frame rate                     : 23.976 fps
Standard                       : NTSC
Color space                    : YUV
Chroma subsampling             : 4:2:0
Bit depth                      : 8 bits
Scan type                      : Progressive
Bits/(Pixel*Frame)             : 0.262
Stream size                    : 69.9 MiB (92%)


Audio
ID                             : 2
Format                         : AAC
Format/Info                    : Advanced Audio Codec
Format profile                 : LC
Codec ID                       : 40
Duration                       : 4mn 30s
Bit rate mode                  : Variable
Bit rate                       : 192 Kbps
Maximum bit rate               : 218 Kbps
Channel(s)                     : 2 channels
Channel positions              : Front: L R
Sampling rate                  : 44.1 KHz
Compression mode               : Lossy
Stream size                    : 6.17 MiB (8%)		
ManaFt.JorgeYMateus-VoceEMinhaReligiao-musicvideos-hq.net.mp4 79.935 MB
Gathering some info...

Register and log in Isohunt and see no captcha anymore!

4000 symbols left
Hash BE4901F1E29AD1862D8D46455EF3364E457250A5