Flo Rida - Let It Roll (h264/mp4)

Size 112.443 MB   0 seeders     Added 2012-12-22 23:44:31

Stream torrent
Starting‥ You need BitLord! Get it from BitLord.com
To download or stream you need BitLord. Visit them at BitLord.com
General

Format                         : MPEG-4
Format profile                 : Base Media
Codec ID                       : isom
File size                      : 107 MiB
Duration                       : 3mn 16s
Overall bit rate mode          : Variable
Overall bit rate               : 4 583 Kbps
Encoded date                   : UTC 2012-12-09 17:16:03
Tagged date                    : UTC 2012-12-09 17:16:03

Video
ID                             : 1
Format                         : AVC
Format/Info                    : Advanced Video Codec
Format profile                 : High@L3.0
Format settings, CABAC         : Yes
Format settings, ReFrames      : 2 frames
Codec ID                       : avc1
Codec ID/Info                  : Advanced Video Coding
Duration                       : 3mn 16s
Bit rate                       : 4 391 Kbps
Maximum bit rate               : 8 867 Kbps
Width                          : 720 pixels
Height                         : 480 pixels
Display aspect ratio           : 16:9
Original display aspect ratio  : 16:9
Frame rate mode                : Constant
Frame rate                     : 23.976 fps
Standard                       : NTSC
Color space                    : YUV
Chroma subsampling             : 4:2:0
Bit depth                      : 8 bits
Scan type                      : Progressive
Bits/(Pixel*Frame)             : 0.530
Stream size                    : 103 MiB (96%)


Audio
ID                             : 2
Format                         : AAC
Format/Info                    : Advanced Audio Codec
Format profile                 : LC
Codec ID                       : 40
Duration                       : 3mn 16s
Bit rate mode                  : Variable
Bit rate                       : 188 Kbps
Maximum bit rate               : 209 Kbps
Channel(s)                     : 2 channels
Channel positions              : Front: L R
Sampling rate                  : 44.1 KHz
Compression mode               : Lossy
Stream size                    : 4.40 MiB (4%)		
FloRida-LetItRoll-musicvideos-hq.net.mp4 112.443 MB
Gathering some info...

Register and log in Isohunt and see no captcha anymore!

4000 symbols left
Hash 2feb7cd16de56d3a8ce5faebc39f3ba7ac399b95

Related torrents for "Flo Rida - Let It Roll (h264/mp4)"

Torrent search:

h264