T I Ft Lil Wayne - Ball (h264/mp4)

Size 123.34 MB   5 seeders     Added 2012-12-22 23:40:50

Stream torrent
Starting‥ You need BitLord! Get it from 1BitLord.com
To download or stream you need BitLord. Visit them at BitLord.com
General

Format                         : MPEG-4
Format profile                 : Base Media
Codec ID                       : isom
File size                      : 118 MiB
Duration                       : 3mn 23s
Overall bit rate mode          : Variable
Overall bit rate               : 4 839 Kbps
Encoded date                   : UTC 2012-11-15 02:16:19
Tagged date                    : UTC 2012-11-15 02:16:19

Video
ID                             : 1
Format                         : AVC
Format/Info                    : Advanced Video Codec
Format profile                 : High@L3.0
Format settings, CABAC         : Yes
Format settings, ReFrames      : 2 frames
Codec ID                       : avc1
Codec ID/Info                  : Advanced Video Coding
Duration                       : 3mn 23s
Bit rate                       : 4 643 Kbps
Maximum bit rate               : 8 838 Kbps
Width                          : 720 pixels
Height                         : 480 pixels
Display aspect ratio           : 16:9
Original display aspect ratio  : 16:9
Frame rate mode                : Constant
Frame rate                     : 29.970 fps
Standard                       : NTSC
Color space                    : YUV
Chroma subsampling             : 4:2:0
Bit depth                      : 8 bits
Scan type                      : Progressive
Bits/(Pixel*Frame)             : 0.448
Stream size                    : 113 MiB (96%)

Audio
ID                             : 2
Format                         : AAC
Format/Info                    : Advanced Audio Codec
Format profile                 : LC
Codec ID                       : 40
Duration                       : 3mn 23s
Bit rate mode                  : Variable
Bit rate                       : 192 Kbps
Maximum bit rate               : 221 Kbps
Channel(s)                     : 2 channels
Channel positions              : Front: L R
Sampling rate                  : 44.1 KHz
Compression mode               : Lossy
Stream size                    : 4.68 MiB (4%)
T.I.Ft.LilWayne-Ball-musicvideos-hq.net.mp4 123.34 MB
Gathering some info...

Register and log in Isohunt and see no captcha anymore!

4000 symbols left
Hash dbe2a8b3403c09910730b1fe6f87312d91d738e0

Related torrents for "T I Ft Lil Wayne - Ball (h264/mp4)"

Torrent search:

h264