Heavy

Heavy (2011)

Fitness, Lifestyle

Full description

Saxon Heavy Metal Thunder The Movie Mkv 1080p AC-3 Stereo

Size 3.879 GB   2 seeders     Added 2012-12-23 09:54:17

Stream torrent
Starting‥ You need BitLord! Get it from BitLord.com
To download or stream you need BitLord. Visit them at BitLord.com
Saxon Heavy Metal Thunder The Movie


This documentary about the veteran British Heavy Metal band. Includes interviews with members of Saxon, past and present as well as fellow musician Lars Ulrich, Lemmy, Fast Eddie, Harvey Goldsmith, Steve Strange, Dave Poxon, Geoff Barton and many others. Apart from the documentary, this release also includes a plethora of bonus live performances from various stages of the band's career.


General 
Unique ID : 241035491383413744176486090051924798180 (0xB555BF3EC510347587D28A1854942AE4) 
Saxon Heavy Metal Thunder The Movie.mkv 
Format : Matroska 
Format version : Version 2 
File size : 3.61 GiB 
Duration : 2h 2mn 
Overall bit rate mode : Variable 
Overall bit rate : 4 218 Kbps 
Movie name : Saxon Heavy Metal Thunder The Movie 
Encoded date : UTC 2012-12-22 00:20:46 
Writing application : mkvmerge v5.7.0 ('The Whirlwind') built on Jul 8 2012 20:08:51 
Writing library : libebml v1.2.3 + libmatroska v1.3.0 

Video 
ID : 1 
Format : AVC 
Format/Info : Advanced Video Codec 
Format profile : High@L4.0 
Format settings, CABAC : Yes 
Format settings, ReFrames : 3 frames 
Codec ID : V_MPEG4/ISO/AVC 
Duration : 2h 2mn 
Bit rate mode : Variable 
Bit rate : 3 942 Kbps 
Maximum bit rate : 25.0 Mbps 
Width : 1 920 pixels 
Height : 1 080 pixels 
Display aspect ratio : 16:9 
Frame rate mode : Constant 
Frame rate : 29.970 fps 
Color space : YUV 
Chroma subsampling : 4:2:0 
Bit depth : 8 bits 
Scan type : Progressive 
Bits/(Pixel*Frame) : 0.063 
Stream size : 3.38 GiB (93%) 
Writing library : x264 core 125 r2208 d9d2288 
Encoding settings : cabac=1 / ref=3 / deblock=1:0:0 / analyse=0x3:0x113 / me=hex / subme=7 / psy=1 / psy_rd=1.00:0.00 / mixed_ref=1 / me_range=16 / chroma_me=1 / trellis=1 / 8x8dct=1 / cqm=0 / deadzone=21,11 / fast_pskip=1 / chroma_qp_offset=-2 / threads=12 / lookahead_threads=2 / sliced_threads=0 / nr=0 / decimate=1 / interlaced=0 / bluray_compat=0 / constrained_intra=0 / bframes=3 / b_pyramid=0 / b_adapt=1 / b_bias=0 / direct=1 / weightb=1 / open_gop=0 / weightp=2 / keyint=300 / keyint_min=30 / scenecut=40 / intra_refresh=0 / rc_lookahead=40 / rc=crf / mbtree=1 / crf=24.0 / qcomp=0.60 / qpmin=0 / qpmax=69 / qpstep=4 / vbv_maxrate=25000 / vbv_bufsize=25000 / crf_max=0.0 / nal_hrd=vbr / ip_ratio=1.40 / aq=1:1.00 
Default : Yes 
Forced : No 

Audio 
ID : 2 
Format : AC-3 
Format/Info : Audio Coding 3 
Mode extension : CM (complete main) 
Format settings, Endianness : Big 
Codec ID : A_AC3 
Duration : 2h 2mn 
Bit rate mode : Constant 
Bit rate : 192 Kbps 
Channel(s) : 2 channels 
Channel positions : Front: L R 
Sampling rate : 48.0 KHz 
Bit depth : 16 bits 
Compression mode : Lossy 
Stream size : 168 MiB (5%) 
Language : English 
Default : Yes 
Forced : No 

Menu 
00:00:00.000 : en:Chapter 00 
00:01:02.796 : en:Chapter 01 
00:04:03.142 : en:Chapter 02 
00:08:45.358 : en:Chapter 03 
00:16:45.704 : en:Chapter 04 
00:23:34.312 : en:Chapter 05 
00:31:28.286 : en:Chapter 06 
00:37:37.288 : en:Chapter 07 
00:46:26.717 : en:Chapter 08 
00:47:51.602 : en:Chapter 09 
00:53:54.931 : en:Chapter 10 
01:01:07.497 : en:Chapter 11 
01:09:44.813 : en:Chapter 12 
01:13:32.040 : en:Chapter 13 
01:22:19.567 : en:Chapter 14 
01:31:36.123 : en:Chapter 15 
01:34:25.059 : en:Chapter 16 
01:39:37.037 : en:Chapter 17 
01:43:47.287 : en:Chapter 18 
01:45:23.950 : en:Chapter 19 
01:46:45.098 : en:Chapter 20 
01:55:31.190 : en:Chapter 21 
		
Saxon Heavy Metal Thunder The Movie.mkv 3.879 GB
Gathering some info...

Register and log in Isohunt and see no captcha anymore!

4000 symbols left
Hash 2FA7D1D97C01337CED835ED078166A2CE30D75CF

Related torrents for "Saxon Heavy Metal Thunder The Movie Mkv 1080p AC-3 Stereo"

Torrent search:

fullhd