imdb
rating

6.6
Scooby-Doo! in Where's My Mummy?

Scooby-Doo! in Where's My Mummy? (2005)

Animation, Thriller, Family

Full description
quality   hd bd fullhd dvdrip x264

Scooby Doo in Wheres My Mummy? (2005) BRRIP 720P

Size 2.165 GB   0 seeders     Added 2012-12-23 13:40:17

Stream torrent
Starting‥ You need BitLord! Get it from 1BitLord.com
10
To download or stream you need BitLord. Visit them at BitLord.com
Storyline

Scooby-Doo and the Mystery Inc. gang become involved in a supernatural mystery in 

Egypt. 


Format                                   : MPEG-4
Format profile                           : Base Media
Codec ID                                 : isom
File size                                : 2.02 GiB
Duration                                 : 1h 14mn
Overall bit rate mode                    : Variable
Overall bit rate                         : 3 879 Kbps
Movie name                               : Scooby-Doo In Where's My Mummy?
Performer                                : Joe Sichta
Genre                                    : Kids & Family
Recorded date                            : UTC 2008-03-01 08:00:00
Tagged date                              : UTC 2012-12-22 08:28:53
Cover                                    : Yes

Video
ID                                       : 1
Format                                   : AVC
Format/Info                              : Advanced Video Codec
Format profile                           : Baseline@L3.0
Format settings, CABAC                   : No
Format settings, ReFrames                : 3 frames
Codec ID                                 : avc1
Codec ID/Info                            : Advanced Video Coding
Duration                                 : 1h 14mn
Bit rate                                 : 3 748 Kbps
Width                                    : 1 280 pixels
Height                                   : 720 pixels
Display aspect ratio                     : 16:9
Frame rate mode                          : Constant
Frame rate                               : 23.976 fps
Color space                              : YUV
Chroma subsampling                       : 4:2:0
Bit depth                                : 8 bits
Scan type                                : Progressive
Bits/(Pixel*Frame)                       : 0.170
Stream size                              : 1.95 GiB (97%)
Writing library                          : x264 core 102
Encoding settings                        : cabac=0 / ref=3 / deblock=1:0:0 / 
Audio
ID                                       : 2
Format                                   : AAC
Format/Info                              : Advanced Audio Codec
Format profile                           : LC
Codec ID                                 : 40
Duration                                 : 1h 14mn
Bit rate mode                            : Variable
Bit rate                                 : 128 Kbps
Maximum bit rate                         : 203 Kbps
Channel(s)                               : 2 channels
Channel positions                        : Front: L R
Sampling rate                            : 48.0 KHz
Compression mode                         : Lossy
Stream size                              : 68.1 MiB (3%)
Language                                 : English

Text
ID                                       : 3
Scooby Doo in Where's My Mummy/scooby-doo in where's my mummy (2005).mp4 2.164 GB
Scooby Doo in Where's My Mummy/Scooby Doo in Where's My Mummy Front Cover.jpg 554.677 KB
Scooby Doo in Where's My Mummy/Scooby Doo in Where's My Mummy CD.jpg 293.979 KB
Gathering some info...

Register and log in Isohunt and see no captcha anymore!

4000 symbols left
Hash 0ad5b7f0a006cbfb980744c22f55f5625738e9c1

Related torrents for "Scooby Doo in Wheres My Mummy? (2005) BRRIP 720P"

Torrent search:

2005 hd bd