The Secret Circle

The Secret Circle (2011)

, Drama, Fantasy, Horror/Supernatural

Full description

The Secret Circle S01E05 HDTV XviD-RoR [Lektor PL]

Size 366.131 MB   0 seeders     Added 2012-12-23 19:01:05

Stream torrent
Starting‥ You need BitLord! Get it from 1BitLord.com
To download or stream you need BitLord. Visit them at BitLord.com
Tytuł PL: ..:: Tajemny Krąg ::..
Tytuł : ..:: The Secret Circle ::..

Produkcja: Kanada, USA
Gatunek: Horror, Melodramat, Fantasy
Data premiery: 15.09.2011 Świat
Reżyseria: Liz Friedlander, Guy Norman Bee
Zdjęcia: Robert McLachlan , Ramsey Nickell
Muzyka: John Frizzell
Stacja telewizyjna: The CW 
Czas trwania odcinka: 45 min.
http://www.filmweb.pl/serial/Tajemny+kr%C4%85g-2011-614988
http://www.cwtv.com/shows/the-secret-circle

O B S A D A:

Britt Robertson ... Cassie Blake
Thomas Dekker ... Adam Conant
Phoebe Tonkin ... Faye Chamberlain
Shelley Hennig ... Diana Meade
Jessica Parker Kennedy ... Melissa Glaser

O P I S S E R I A L U:

Cassie Blake była zwyczajną, szczęśliwą nastolatką - dopóki jej matka Amelia nie zginęła w strasznym pożarze. Osierocona i bardzo osamotniona Cassie przeprowadza się razem z kochającą babcią Jane do małego pięknego miasteczka Chance Harbor, w stanie Waszyngton - miasteczka, które jej mama opuściła lata temu - gdzie mieszkańcy zdają się wiedzieć więcej o Cassie niż ona sama. Kiedy Cassie poznaje swoich kolegów ze szkoły, w tym z natury słodką Dianę i jej przystojnego chłopaka Adama, samotnika Nicka, Fayę i jej pomocniczkę Melissę, zaczynają się dziać dziwne i przerażające rzeczy. Kiedy jej nowi przyjaciele tłumaczą jej, że wszyscy są potomkami potężnych czarownic i czekali na Cassie i by do nich dołączyła i uzupełniła nową generację Tajemniczego Kręgu, Cassie im nie wierzy - dopóki Adam nie pokazuje jej jak odblokować jej wspaniałe magiczne moce. Kiedy Cassie odkrywa wiadomość od jej matki, w starej skórzanej księdze zaklęć ukrytej w sypialni matki z dzieciństwa, zaczyna rozumieć jej prawdziwe i zarazem niebezpieczne przeznaczenie.Czego Cassie i inni jeszcze nie wiedzą, to to, że w grze są jeszcze ciemne moce, moce, które mogą być powiązane z dorosłymi w mieście, włączając ojca Diany i matkę Fayi - i to, że śmierć matki Cassie mogła nie być przypadkiem.

The.Secret.Circle.S01E05.HDTV.XviD-RoR [Lektor PL].avi

Format : AVI
Format/Info : Audio Video Interleave
File size : 349 MiB
Duration : 40mn 16s
Overall bit rate : 1 212 Kbps
Writing application : VirtualDubMod 1.5.10.2 (build 2542/release)
Writing library : VirtualDubMod build 2542/release

Video
ID : 0
Format : MPEG-4 Visual
Format profile : Advanced Simple@L5
Format settings, BVOP : 1
Format settings, QPel : No
Format settings, GMC : No warppoints
Format settings, Matrix : Default (H.263)
Muxing mode : Packed bitstream
Codec ID : XVID
Codec ID/Hint : XviD
Duration : 40mn 16s
Bit rate : 1 074 Kbps
Width : 624 pixels
Height : 352 pixels
Display aspect ratio : 16:9
Frame rate : 25.000 fps
Color space : YUV
Chroma subsampling : 4:2:0
Bit depth : 8 bits
Scan type : Progressive
Compression mode : Lossy
Bits/(Pixel*Frame) : 0.196
Stream size : 310 MiB (89%)
Writing library : XviD 64

Audio
ID : 1
Format : MPEG Audio
Format version : Version 1
Format profile : Layer 3
Mode : Joint stereo
Mode extension : MS Stereo
Codec ID : 55
Codec ID/Hint : MP3
Duration : 40mn 16s
Bit rate mode : Constant
Bit rate : 128 Kbps
Channel(s) : 2 channels
Sampling rate : 44.1 KHz
Compression mode : Lossy
Stream size : 36.9 MiB (11%)
Alignment : Split accross interleaves
Interleave, duration : 40 ms (1.00 video frame)
Interleave, preload duration : 500 ms
The.Secret.Circle.S01E05.HDTV.XviD-RoR [Lektor PL].avi 366.131 MB
Gathering some info...

Register and log in Isohunt and see no captcha anymore!

4000 symbols left
Hash D32784AB79D4B6D3D69148BDAE7CABF045510D42

Related torrents for "The Secret Circle S01E05 HDTV XviD-RoR [Lektor PL]"

Torrent search:

season 01 hdtv episode 05