imdb
rating

6.7

Full description

Revolution S01E01-10 TVRip WEB-DL XviD [Lektor PL]

Size 3.673 GB   6 seeders     Added 2012-12-23 20:21:00

Stream torrent
Starting‥ You need BitLord! Get it from BitLord.com
To download or stream you need BitLord. Visit them at BitLord.com
Tytuł: ..:: Revolution ::..

Produkcja: USA
Gatunek: Akcja, Dramat, Sci-Fi
Data premiery: 17.09.2012
Reżyseria: Jon Favreau
Zdjęcia: Michael Bonvillain
Czas trwania odcinka: 43 min.
http://www.filmweb.pl/serial/Revolution-2012-634694
Napisy PL: http://grupahatak.pl/ oraz: http://napisy24.pl/katalog/

Całe nasze życie uzależnione jest od dostępu do prądu. Co się więc stanie, gdy go zabraknie? Pewnego dnia ktoś "wyłącza guzik" i świat pogrąża się w ciemności. Samoloty spadają z nieba, szpitale nie mogą funkcjonować, transport jest niemożliwy. Teraz, piętnaście lat później życie wygląda podobnie do tego sprzed rewolucji przemysłowej - ludzie żyją w małych osadach, które po zachodzie słońca oświetlają jedynie świece i pochodnie. Życie wydaje się być wolniejsze i łatwiejsze, ale czy faktycznie takie jest? Na obrzeżach, gdzie żyją małe społeczności, czai się niebezpieczeństwo. Diametralnie zmienia się życie głównej bohaterki, młodej dziewczyny, gdy do jej osady przybywa miejscowa policja i zabija jej ojca, który miał jakiś związek z utratą elektryczności przez cały świat. To wydarzenie zmusza ją do odbycia podróży w trakcie której znajdzie odpowiedzi na temat nie

Obsada:

Tracy Spiridakos ... Charlie Matheson
Graham Rogers ... Danny Matheson
Anna Lise Phillips ... Maggie
Giancarlo Esposito ... Kapitan Neville
Billy Burke ... Miles Matheson
Tim Guinee ... Ben Matheson
JD Pardo ... Nate
Zak Orth ... Aaron
Jeff Wolfe ... Sierżant
Maria Howell ... Grace

Dane Techniczne jednego odcinka:

Format : AVI
Format/Info : Audio Video Interleave
File size : 349 MiB
Duration : 41mn 7s
Overall bit rate : 1 188 Kbps
Writing application : VirtualDubMod 1.5.10.2 (build 2540/release)
Writing library : VirtualDubMod build 2540/release

Video
ID : 0
Format : MPEG-4 Visual
Format profile : Advanced Simple@L5
Format settings, BVOP : 2
Format settings, QPel : No
Format settings, GMC : No warppoints
Format settings, Matrix : Default (H.263)
Muxing mode : Packed bitstream
Codec ID : XVID
Codec ID/Hint : XviD
Duration : 41mn 7s
Bit rate : 1 050 Kbps
Width : 624 pixels
Height : 352 pixels
Display aspect ratio : 16:9
Frame rate : 25.000 fps
Color space : YUV
Chroma subsampling : 4:2:0
Bit depth : 8 bits
Scan type : Progressive
Compression mode : Lossy
Bits/(Pixel*Frame) : 0.191
Stream size : 309 MiB (88%)
Writing library : XviD 64

Audio
ID : 1
Format : MPEG Audio
Format version : Version 1
Format profile : Layer 3
Codec ID : 55
Codec ID/Hint : MP3
Duration : 41mn 7s
Bit rate mode : Constant
Bit rate : 128 Kbps
Channel(s) : 2 channels
Sampling rate : 48.0 KHz
Compression mode : Lossy
Stream size : 37.6 MiB (11%)
Alignment : Aligned on interleaves
Interleave, duration : 40 ms (1.00 video frame)
Interleave, preload duration : 504 ms 
Revolution.S01E01.TVRip.XviD-RoR [Lektor PL].avi 366.424 MB
Revolution.S01E02.TVRip.XviD-RoR [Lektor PL].avi 367.942 MB
Revolution.S01E03.TVRip.XviD-RoR [Lektor PL].avi 368.895 MB
Gathering some info...

Register and log in Isohunt and see no captcha anymore!

4000 symbols left
Hash D7AB541225CE619306281BA38A50069FAB8227F9

Related torrents for "Revolution S01E01-10 TVRip WEB-DL XviD [Lektor PL]"

Torrent search:

season 01 episode 01 hdtv web-dl