Beyond

Beyond

Drama, Mystery

Full description

Yu Gi Oh! Bonds Beyond Time 2010 BluRay 720p DTS5.1 H.264-HP [English Dubbed]

Size 2.335 GB   3 seeders     Added 2012-12-23 21:20:32

Stream torrent
Starting‥ You need BitLord! Get it from BitLord.com
To download or stream you need BitLord. Visit them at BitLord.com
[img]image[/img]
==============================================================

Description: After falling through a time-slip, Yusei Fudo (who has just had his powerful card stolen by a mysterious stranger) meets with Judai Yuki and Yugi Muto, who agree to help Yusei defeat the evil Paradox, who is planning to destroy Pegasus before he can invent Duel Monsters.

===================================================================

Media Info
==========

[code]General
Unique ID : 234410405747152674000101019889739908176 (0xB059CD4DEF4D81FEB659DD0DE4724450)
Complete name : C:\Users\Suwadith\Downloads\Video\Yu.Gi.Oh.Bonds.Beyond.Time.2010.BluRay.720p.DTS5.1.H.264-HP.mkv
Format : Matroska
Format version : Version 2
File size : 2.17 GiB
Duration : 49mn 59s
Overall bit rate : 6 228 Kbps
Encoded date : UTC 2011-07-30 10:06:32
Writing application : mkvmerge v4.6.0 ('Still Crazy After All These Years') built on Mar 10 2011 02:50:32
Writing library : libebml v1.2.0 + libmatroska v1.1.0

Video
ID : 2
Format : AVC
Format/Info : Advanced Video Codec
Format profile : High@L4.1
Format settings, CABAC : Yes
Format settings, ReFrames : 5 frames
Codec ID : V_MPEG4/ISO/AVC
Duration : 49mn 59s
Bit rate : 5 492 Kbps
Width : 1 280 pixels
Height : 720 pixels
Display aspect ratio : 16:9
Frame rate mode : Constant
Frame rate : 23.976 fps
Color space : YUV
Chroma subsampling : 4:2:0
Bit depth : 8 bits
Scan type : Progressive
Bits/(Pixel*Frame) : 0.249
Stream size : 1.87 GiB (86%)
Writing library : x264 core 115 r1995 c1e60b9
Encoding settings : cabac=1 / ref=5 / deblock=1:-1:-1 / analyse=0x3:0x113 / me=umh / subme=9 / psy=1 / psy_rd=1.00:0.15 / mixed_ref=1 / me_range=32 / chroma_me=1 / trellis=1 / 8x8dct=1 / cqm=0 / deadzone=21,11 / fast_pskip=1 / chroma_qp_offset=-3 / threads=12 / sliced_threads=0 / nr=0 / decimate=1 / interlaced=0 / bluray_compat=0 / constrained_intra=0 / bframes=3 / b_pyramid=2 / b_adapt=1 / b_bias=0 / direct=1 / weightb=1 / open_gop=0 / weightp=2 / keyint=250 / keyint_min=23 / scenecut=40 / intra_refresh=0 / rc_lookahead=40 / rc=2pass / mbtree=1 / bitrate=5492 / ratetol=1.0 / qcomp=0.60 / qpmin=10 / qpmax=51 / qpstep=4 / cplxblur=20.0 / qblur=0.5 / vbv_maxrate=17500 / vbv_bufsize=14000 / nal_hrd=none / ip_ratio=1.40 / aq=1:1.00
Language : English
Default : Yes
Forced : No

Audio
ID : 1
Format : DTS
Format/Info : Digital Theater Systems
Mode : 16
Format settings, Endianness : Big
Codec ID : A_DTS
Duration : 49mn 59s
Bit rate mode : Constant
Bit rate : 755 Kbps
Channel(s) : 6 channels
Channel positions : Front: L C R, Side: L R, LFE
Sampling rate : 48.0 KHz
Bit depth : 24 bits
Compression mode : Lossy
Stream size : 270 MiB (12%)
Default : Yes
Forced : No
[/code]

Screenshots
===========

[img]image[/img]

[img]image[/img]

[img]image[/img]

=============================================================

Hash
====
83F579FDBC40D990EDED05257F3DFEB49525F436
=================================

[url=http://www.youtube.com/user/HDBeybladeEpisodes]
[img]image[/img][/url]
[img]image[/img]

[url=http://toon-anime.forumotion.eu/forum][img]image[/img][/url]

Yu.Gi.Oh.Bonds.Beyond.Time.2010.BluRay.720p.DTS5.1.H.264-HP.mkv 2.335 GB
Gathering some info...

Register and log in Isohunt and see no captcha anymore!

4000 symbols left
Hash 83F579FDBC40D990EDED05257F3DFEB49525F436

Related torrents for "Yu Gi Oh! Bonds Beyond Time 2010 BluRay 720p DTS5.1 H.264-HP [English Dubbed]"

Torrent search:

english hd 2010 bd