Extras

Extras (2005)

Comedy

Full description

Mass Effect Paragon Lost + Extras

Size 5.64 GB   2 seeders     Added 2012-12-24 12:36:59

Stream torrent
Starting‥ You need BitLord! Get it from BitLord.com
To download or stream you need BitLord. Visit them at BitLord.com
F:VIDEO EDITINGMass Effect Paragon Lost + ExtrasMass Effect Paragon Lost (2012).mkv
   General
      Unique ID : 76898064924518866689676849584383396562 (0x39DA0751B296020C5E5FC90A26EF0AD2)
      Complete name : F:VIDEO EDITINGMass Effect Paragon Lost + ExtrasMass Effect Paragon Lost (2012).mkv
      Format : Matroska
      Format version : Version 2
      File size : 3.60 GiB
      Duration : 1h 34mn
      Overall bit rate : 5 454 Kbps
      Writing application : HandBrake 0.9.8
      Writing library : libmkv 0.6.5
   Video #1
      ID : 1
      Format : AVC
      Format/Info : Advanced Video Codec
      Format profile : High@L5.0
      Format settings, CABAC : Yes
      Format settings, ReFrames : 5 frames
      Codec ID : V_MPEG4/ISO/AVC
      Duration : 1h 34mn
      Bit rate : 5 000 Kbps
      Width : 1 920 pixels
      Height : 1 072 pixels
      Display aspect ratio : 16:9
      Frame rate mode : Constant
      Frame rate : 23.976 fps
      Color space : YUV
      Chroma subsampling : 4:2:0
      Bit depth : 8 bits
      Scan type : Progressive
      Bits/(Pixel*Frame) : 0.101
      Stream size : 3.23 GiB (90%)
      Writing library : x264 core 120
      Encoding settings : cabac=1 / ref=6 / deblock=1:0:0 / analyse=0x3:0x133 / me=umh / subme=7 / psy=1 / psy_rd=1.00:0.00 / mixed_ref=1 / me_range=64 / chroma_me=1 / trellis=2 / 8x8dct=1 / cqm=0 / deadzone=21,11 / fast_pskip=1 / chroma_qp_offset=-2 / threads=12 / sliced_threads=0 / nr=0 / decimate=1 / interlaced=0 / bluray_compat=0 / constrained_intra=0 / bframes=16 / b_pyramid=1 / b_adapt=2 / b_bias=0 / direct=1 / weightb=1 / open_gop=0 / weightp=2 / keyint=240 / keyint_min=24 / scenecut=40 / intra_refresh=0 / rc_lookahead=50 / rc=2pass / mbtree=1 / bitrate=5000 / ratetol=1.0 / qcomp=0.60 / qpmin=3 / qpmax=69 / qpstep=4 / cplxblur=20.0 / qblur=0.5 / ip_ratio=1.40 / aq=1:1.00
      Language : English
      Default : Yes
      Forced : No
      Color primaries : BT.709
      Transfer characteristics : BT.709
      Matrix coefficients : BT.709
   Audio #2
      ID : 2
      Format : AC-3
      Format/Info : Audio Coding 3
      Mode extension : CM (complete main)
      Format settings, Endianness : Big
      Codec ID : A_AC3
      Duration : 1h 34mn
      Bit rate mode : Constant
      Bit rate : 448 Kbps
      Channel(s) : 6 channels
      Channel positions : Front: L C R, Side: L R, LFE
      Sampling rate : 48.0 KHz
      Bit depth : 16 bits
      Compression mode : Lossy
      Stream size : 303 MiB (8%)
      Language : English
      Default : Yes
      Forced : No-------------------------------------Torrent downloaded from http://thepiratebay.se
A Look Inside Electronic Arts [1080p].mkv 335.828 MB
An Insiders Look into the Mass Effect Universe [1080p].mkv 493.169 MB
Mass Effect Paragon Lost (2012).mkv 3.863 GB
Gathering some info...

Register and log in Isohunt and see no captcha anymore!

4000 symbols left
Hash A09D9084865F9FDC80296E4F736AD13DEC22E9F2

Related torrents for "Mass Effect Paragon Lost + Extras"

Torrent search:

2012