imdb
rating

8.8
Dexter

Dexter (2006)

Crime, Drama, Mystery

Full description

Dexter Sezon 3 720p BDRip x264 DD5.1 [Lektor PL]

Size 12.888 GB   3 seeders     Added 2012-12-24 18:21:11

Stream torrent
Starting‥ You need BitLord! Get it from BitLord.com
To download or stream you need BitLord. Visit them at BitLord.com
Tytuł: ..:: Dexter ::..

Produkcja: USA
Gatunek: Dramat, Kryminał
Data premiery: 30.09.2012 - season 7
Reżyseria: Michael Cuesta, Steve Shill
Zdjęcia: Alan Caso, Terry Stacey
Muzyka: Daniel Licht, Rolfe Kent
Stacja telewizyjna: Showtime
Czas trwania odcinka: 50 min.
http://www.filmweb.pl/Dexter
http://www.sho.com/sho/dexter/home

O B S A D A:

Michael C. Hall ... Dexter Morgan
Jennifer Carpenter ... Debra Morgan
Lauren Vélez ... Porucznik Maria LaGuerta
David Zayas ... Angel Batista
James Remar ... Harry Morgan
C.S. Lee ... Vince Masuka
Julie Benz ... Rita Bennett
Desmond Harrington ... Joey Quinn
Christina Robinson ... Astor Bennett
Preston Bailey ... Cody Bennett

O P I S S E R I A L U:

Dexter jest seryjnym mordercą. W dzieciństwie został przygarnięty przez policjanta, Harry'ego, który nauczył go zaspokajać swoje chore pragnienia, będące wynikiem traumatycznych przeżyć. Dexter, posługując się "kodeksem" przybranego ojca, zabija ludzi, którzy sobie (w jego mniemaniu) na to zasłużyli, a jednocześnie swojemu "głodowi" zabijania mówi stanowcze nie! Od czasu śmierci Harry'ego nie ma nikogo, kto znałby mroczną prawdę o Dexterze. Nie wie o tym nawet jego przybrana siostra Deb, pracująca w tym samym oddziale policji Miami. Pewnego dnia w sielankowe życie bohatera wkrada się ktoś, kto wyrywa Dextera z rutyny - morderca z ciężarówki-chłodni. Okalecza swe ofiary w niezwykle oryginalny i wyjątkowy sposób, co imponuje Dexterowi. Okazuje się, że obaj panowie mają ze sobą więcej wspólnego, niż się wydaje... 

Dane techniczne poszczególnych odcinków nieznacznie się różnią.
Przykładowe dane losowo wybranego odcinka:

Format : Matroska
Format version : Version 2
File size : 1.00 GiB
Duration : 54mn 43s
Overall bit rate : 2 617 Kbps

Video
ID : 1
Format : AVC
Format/Info : Advanced Video Codec
Format profile : High@L4.1
Format settings, CABAC : Yes
Format settings, ReFrames : 2 frames
Codec ID : V_MPEG4/ISO/AVC
Duration : 54mn 43s
Bit rate : 2 262 Kbps
Width : 1 280 pixels
Height : 720 pixels
Display aspect ratio : 16:9
Frame rate mode : Constant
Frame rate : 23.976 fps
Stream size : 853 MiB (83%)
Writing library : x264

Audio
ID : 2
Format : AC-3
Format/Info : Audio Coding 3
Duration : 54mn 43s
Bit rate mode : Constant
Bit rate : 384 Kbps
Channel(s) : 6 channels
Channel positions : Front: L C R, Side: L R, LFE
Sampling rate : 48.0 KHz
Stream size : 150 MiB (15%)
Language : Polish
Dexter S03E01 [720p.BDRip.x264.DD5.1] [Lektor PL].mkv 1.074 GB
Dexter S03E02 [720p.BDRip.x264.DD5.1] [Lektor PL].mkv 1.074 GB
Dexter S03E03 [720p.BDRip.x264.DD5.1] [Lektor PL].mkv 1.074 GB
Gathering some info...

Register and log in Isohunt and see no captcha anymore!

4000 symbols left
Hash 6FF8C0D6E5828556363F4F1C3819F3B356867BD1

Related torrents for "Dexter Sezon 3 720p BDRip x264 DD5.1 [Lektor PL]"

Torrent search:

x264 hd bd