imdb
rating

7.9
Elementary

Elementary (2012)

Drama, Mystery, Crime

Full description

Elementary S01E09 WEB-DL XviD-RoR [Lektor PL]

Size 366.373 MB   1 seeders     Added 2012-12-24 19:41:41

Stream torrent
Starting‥ You need BitLord! Get it from BitLord.com
To download or stream you need BitLord. Visit them at BitLord.com
Tytuł: ..:: Elementary ::..

Produkcja: USA
Gatunek: Dramat, Kryminał
Data premiery: 27.09.2012 - season 1
Reżyseria: Michael Cuesta
Zdjęcia: Nelson Cragg
Stacja telewizyjna: CBS
Czas trwania odcinka: 43 min.
http://www.filmweb.pl/serial/Elementary-2012-645151
http://www.cbs.com/shows/elementary/
Napisy PL: http://grupahatak.pl/ oraz: http://napisy24.pl/katalog/

O B S A D A:

Jonny Lee Miller ... Sherlock Holmes
Lucy Liu ... Joan Watson
Aidan Quinn ... Kapitan Gregson
Kristen Bush ... Eileen Renfro
Manny Perez ... 
Kelly Southerland ... Pasażer metra
Helmy Lavezzari ... Reporterka 

O P I S S E R I A L U:

"Elementary" to amerykański serial stacji CBS o przygodach słynnego detektywa. Rola główna przypadnie w udziale Jonny'emu Lee Millerowi. "Elementary" jest uwspółcześnioną wersją opowieści o Sherlocku Holmesie, a sam detektyw jest mieszkańcem Nowego Jorku. 

Elementary.S01E09.WEB-DL.XviD-RoR [Lektor PL].avi

Format : AVI
Format/Info : Audio Video Interleave
File size : 349 MiB
Duration : 41mn 29s
Overall bit rate : 1 177 Kbps
Writing application : VirtualDubMod 1.5.10.2 (build 2540/release)
Writing library : VirtualDubMod build 2540/release

Video
ID : 0
Format : MPEG-4 Visual
Format profile : Advanced Simple@L5
Format settings, BVOP : 2
Format settings, QPel : No
Format settings, GMC : No warppoints
Format settings, Matrix : Default (H.263)
Muxing mode : Packed bitstream
Codec ID : XVID
Codec ID/Hint : XviD
Duration : 41mn 29s
Bit rate : 1 040 Kbps
Width : 624 pixels
Height : 352 pixels
Display aspect ratio : 16:9
Frame rate : 25.000 fps
Color space : YUV
Chroma subsampling : 4:2:0
Bit depth : 8 bits
Scan type : Progressive
Compression mode : Lossy
Bits/(Pixel*Frame) : 0.189
Stream size : 309 MiB (88%)
Writing library : XviD 64

Audio
ID : 1
Format : MPEG Audio
Format version : Version 1
Format profile : Layer 3
Codec ID : 55
Codec ID/Hint : MP3
Duration : 41mn 29s
Bit rate mode : Constant
Bit rate : 128 Kbps
Channel(s) : 2 channels
Sampling rate : 48.0 KHz
Compression mode : Lossy
Stream size : 38.0 MiB (11%)
Alignment : Aligned on interleaves
Interleave, duration : 40 ms (1.00 video frame)
Interleave, preload duration : 504 ms
Elementary.S01E09.WEB-DL.XviD-RoR [Lektor PL].avi 366.373 MB
Gathering some info...

Register and log in Isohunt and see no captcha anymore!

4000 symbols left
Hash 3657A44A36B0E755392A9F3CFA9CD05BE661A566

Related torrents for "Elementary S01E09 WEB-DL XviD-RoR [Lektor PL]"

Torrent search:

season 01 episode 09 web-dl