Monte

Monte (2016)

Drama

Full description
quality   bd dvdrip x264 hd fullhd

Depois - Marisa Monte - Clip Oficial flv

Size 12.451 MB   0 seeders     Added 2012-12-25 11:34:44

Stream torrent
Starting‥ You need BitLord! Get it from BitLord.com
To download or stream you need BitLord. Visit them at BitLord.com
Cover: Info:
Format : AVI
Format/Info : Audio Video Interleave
File size : 700 MiB
Duration : 1h 35mn
Overall bit rate mode : Variable
Overall bit rate : 1 021 Kbps
Writing application : VirtualDubMod 1.5.10.2 (build 2540/release)
Writing library : VirtualDubMod build 2540/release
Video
ID : 0
Format : MPEG-4 Visual
Format profile : Advanced Simple@L5
Format settings, BVOP : 2
Format settings, QPel : No
Format settings, GMC : No warppoints
Format settings, Matrix : Default (H.263)
Codec ID : XVID
Codec ID/Hint : XviD
Duration : 1h 35mn
Bit rate : 886 Kbps
Width : 640 pixels
Height : 272 pixels
Display aspect ratio : 2.35:1
Frame rate : 23.976 fps
Color space : YUV
Chroma subsampling : 4:2:0
Bit depth : 8 bits
Scan type : Progressive
Compression mode : Lossy
Bits/(Pixel*Frame) : 0.212
Stream size : 607 MiB (87%)
Writing library : XviD 61
Audio
ID : 1
Format : MPEG Audio
Format version : Version 1
Format profile : Layer 3
Mode : Joint stereo
Mode extension : MS Stereo
Codec ID : 55
Codec ID/Hint : MP3
Duration : 1h 35mn
Bit rate mode : Variable
Bit rate : 128 Kbps
Channel(s) : 2 channels
Sampling rate : 48.0 KHz
Compression mode : Lossy
Stream size : 84.3 MiB (12%)
Alignment : Aligned on interleaves
Interleave, duration : 24 ms (0.58 video frame)
Interleave, preload duration : 149 ms
Writing library : LAME3.98
Encoding settings : -m j -V 4 -q 2 -lowpass 17 --abr 128
Source: Retail BluRay
Size: 700MB
Subtitles: English
IMDb: http://www.imdb.com/title/tt1343727/
ALLiANCE - iMARS
Screens: 
Depois - Marisa Monte - Clip Oficial.flv 12.451 MB
Gathering some info...

Register and log in Isohunt and see no captcha anymore!

4000 symbols left
Hash F4173BE748B9F6FB89FF55164E00176877EF3DD1

Related torrents for "Depois - Marisa Monte - Clip Oficial flv"