Pantera Discography (8 Albums) [MP3@224-320]

Size 806.843 MB   0 seeders     Added 2012-12-25 16:34:53

Stream torrent
Starting‚Ä• You need BitLord! Get it from BitLord.com
To download or stream you need BitLord. Visit them at BitLord.com
Poster: Info:
Format : AVI
Format/Info : Audio Video Interleave
File size : 890 MiB
Overall bit rate : 1 103 Kbps
Video
ID : 0
Format : MPEG-4 Visual
Format profile : Advanced Simple@L5
Format settings, BVOP : 2
Format settings, QPel : No
Format settings, GMC : No warppoints
Format settings, Matrix : Default (H.263)
Muxing mode : Packed bitstream
Codec ID : DX50
Codec ID/Hint : DivX 5
Duration : 1h 52mn
Bit rate : 1 027 Kbps
Width : 720 pixels
Height : 314 pixels
Display aspect ratio : 2.25:1
Frame rate : 23.976 fps
Color space : YUV
Chroma subsampling : 4:2:0
Bit depth : 8 bits
Scan type : Progressive
Compression mode : Lossy
Bits/(Pixel*Frame) : 0.189
Stream size : 828 MiB (93%)
Writing library : XviD 1.2.1 (UTC 2008-12-04)
Audio
ID : 1
Format : MPEG Audio
Format version : Version 1
Format profile : Layer 3
Mode : Joint stereo
Mode extension : MS Stereo
Codec ID : 55
Codec ID/Hint : MP3
Duration : 1h 52mn
Bit rate mode : Constant
Bit rate : 64.0 Kbps
Channel(s) : 2 channels
Sampling rate : 48.0 KHz
Compression mode : Lossy
Stream size : 51.6 MiB (6%)
Alignment : Aligned on interleaves
Interleave, duration : 24 ms (0.58 video frame)
Writing library : LAME3.98.4
Screens: 
(1997) Official Live - 101 Proof/Pantera - Official Live- 101 Proof - [13] - Cemetary Gates.mp3 15.466 MB
(1994) Far Beyond Driven/Pantera - Far Beyond Driven - [06] - Hard Lines, Sunken Cheeks.mp3 14.048 MB
(1990) Cowboys From Hell/Pantera - Cowboys From Hell - [05] - Cemetary Gates.mp3 13.796 MB
Gathering some info...

Register and log in Isohunt and see no captcha anymore!

4000 symbols left
Hash 67D97775855322968E8CC8A5DAE16A0C99498C46