imdb
rating

5.5
Mad Dog Time

Mad Dog Time (1996)

Action, Comedy, Crime, Drama

Full description
quality   dvdrip x264

Mad Dog Time 1996 [Eng] Crime Mafia Drama DVDRiP x264 [KskS] mp4

Size 600.884 MB   0 seeders     Added 2012-12-26 21:40:35

Stream torrent
Starting‥ You need BitLord! Get it from 1BitLord.com
To download or stream you need BitLord. Visit them at BitLord.com
[quote][color=red][b][size=150] Mad Dog Time (1996) a.k.a. Trigger Happy
 English - No subtitles [/size][/b][/color][/quote]

[img]image[/img]

[quote][color=red][b][size=150] Presentation [/size][/b][/color][/quote]
[quote]
[color=#008B8B][b][u]Country[/u] :[/b] United States [img]image[/img] [/color]
[color=#008B8B][b][u]Orginal Track[/u] :[/b] Mad Dog Time [/color]
[color=#008B8B][b][u]Year[/u] :[/b] 1996 - 93mn[/color]
[color=#008B8B][b][u]Directed by[/u] :[/b] Larry Bishop [/color]
[color=#008B8B][b][u]Cast[/u] :[/b] Ellen Barkin, Gabriel Byrne, Richard Dreyfuss, Jeff Goldblum, Diane Lane, Burt Reynolds...[/color]
[color=#008B8B][b][u]Genres[/u] :[/b] Crime - Mafia - Drama - Comedy [/color]
[/quote]


[quote][color=red][b][size=150] Synopsis [/size][/b][/color][/quote]
[quote]
[color=#008B8B]With his boss in the madhouse, a mobster is temporary boss of the criminal empire just as vicious rivals threaten the control of the empire... 

[/color]
[/quote]

[quote][color=red][b][size=150] Technical Details [/size][/b][/color][/quote]
[quote]
[color=#008B8B][b][u]Quality[/u] : [/b] DVDRiP[/color]
[color=#008B8B][b][u]Format[/u] : [/b] x264[/color]
[color=#008B8B][b][u]Language[/u] : [/b] English [/color] [img]image[/img]
[color=#008B8B][b][u]Sustitles[/u] : [/b] None [/color] [img]image[/img]
[/quote]

[quote][color=red][b][size=150]
===============================
N F O
===============================
[/size][/b][/color]
General

Complete name : Mad.Dog.Time.1996.[Eng].Crime.Mafia.Drama.DVDRiP.x264.[KskS].mp4

Format : MPEG-4
Format profile : Sony PSP
Codec ID : MSNV
File size : 573 MiB
Duration : 1h 32mn
Overall bit rate : 863 Kbps
Encoded date : UTC 2012-12-26 00:18:03
Tagged date : UTC 2012-12-26 00:18:03

Video
ID : 1
Format : AVC
Format/Info : Advanced Video Codec
Format profile : Main@L3.0
Format settings, CABAC : Yes
Format settings, ReFrames : 2 frames
Format settings, GOP : M=2, N=29
Codec ID : avc1
Codec ID/Info : Advanced Video Coding
Duration : 1h 32mn
Bit rate mode : Variable
Bit rate : 763 Kbps
Width : 640 pixels
Height : 480 pixels
Display aspect ratio : 16:9
Frame rate mode : Constant
Frame rate : 25.000 fps
Color space : YUV
Chroma subsampling : 4:2:0
Bit depth : 8 bits
Scan type : Progressive
Bits/(Pixel*Frame) : 0.099
Stream size : 507 MiB (88%)
Language : English
Encoded date : UTC 2012-12-26 00:18:03
Tagged date : UTC 2012-12-26 00:18:03

Audio
ID : 2
Format : AAC
Format/Info : Advanced Audio Codec
Format profile : LC
Codec ID : 40
Duration : 1h 32mn
Source duration : 1h 32mn
Bit rate mode : Constant
Bit rate : 96.0 Kbps
Channel(s) : 2 channels
Channel positions : Front: L R
Sampling rate : 48.0 KHz
Compression mode : Lossy
Stream size : 63.7 MiB (11%)
Source stream size : 63.7 MiB (11%)
Language : English
Encoded date : UTC 2012-12-26 00:18:03
Tagged date : UTC 2012-12-26 00:18:03
mdhd_Duration : 5567096
[/quote]
Mad.Dog.Time.1996.[Eng].Crime.Mafia.Drama.DVDRiP.x264.[KskS].mp4 600.884 MB
Gathering some info...

Register and log in Isohunt and see no captcha anymore!

4000 symbols left
Hash 8AF11D3FEAD8C8FD3CBD4899BCAACDE67E2EB464

Related torrents for "Mad Dog Time 1996 [Eng] Crime Mafia Drama DVDRiP x264 [KskS] mp4"

Torrent search:

dvdrip english 1996 x264