Break Free Bipasha Basu (2012) DVDRip XviD

Size 639.525 MB   7 seeders     Added 2012-12-27 00:36:51

Stream torrent
Starting‚Ä• You need BitLord! Get it from 1BitLord.com
10
To download or stream you need BitLord. Visit them at BitLord.com
[img]http://foreverbilgisayar.com/dpi/image.php?id=579E_50DA095B&jpg[/img]
[b]Format : AVI
Format/Info : Audio Video Interleave
File size : 598 MiB
Duration : 1h 4mn
Overall bit rate : 1 289 Kbps
Codec ID : XVID
Codec ID/Hint : XviD
Duration : 1h 4mn
Bit rate : 1 152 Kbps
Width : 688 pixels
Height : 368 pixels
Display aspect ratio : 1.870
Frame rate : 29.970 fps
Color space : YUV
Chroma subsampling : 4:2:0
Bit depth : 8 bits
Scan type : Progressive
Compression mode : Lossy
Bits/(Pixel*Frame) : 0.152
Stream size : 535 MiB (89%)
Writing library : XviD 1.2.1 (UTC 2008-12-04)

Format : AC-3
Format/Info : Audio Coding 3
Mode extension : CM (complete main)
Format settings, Endianness : Big
Codec ID : 2000
Duration : 1h 4mn
Bit rate mode : Constant
Bit rate : 128 Kbps
Channel(s) : 6 channels
Channel positions : Front: L C R, Side: L R, LFE
Sampling rate : 48.0 KHz
Bit depth : 16 bits
Compression mode : Lossy
Stream size : 59.4 MiB (10%)
Alignment : Aligned on interleaves
Interleave, duration : 64 ms (1.92 video frames)
Interleave, preload duration : 192 ms
Title : VTS_02_1 T81 3_2ch 448Kbps DELAY 0ms_new[/b]
[img]http://foreverbilgisayar.com/dpi/image.php?id=0397_50DA6DE7&jpg[/img]
[img]http://foreverbilgisayar.com/dpi/image.php?id=4560_50DA6DE7&jpg[/img]
[img]http://foreverbilgisayar.com/dpi/image.php?id=0C80_50DA6DE7&jpg[/img]
[img]http://foreverbilgisayar.com/dpi/image.php?id=B8ED_50DA6DE7&jpg[/img]
[img]http://foreverbilgisayar.com/dpi/image.php?id=C8AB_50DA6DE7&jpg[/img]
[img]http://foreverbilgisayar.com/dpi/image.php?id=E470_50DA6DE7&jpg[/img]
[img]http://foreverbilgisayar.com/dpi/image.php?id=7910_50DA6DE7&jpg[/img]
[img]http://foreverbilgisayar.com/dpi/image.php?id=95B4_50DA6DE7&jpg[/img]
[img]http://foreverbilgisayar.com/dpi/image.php?id=A7DB_50DA6DE7&jpg[/img]
Break Free Bipasha Basu (2012) DVDRip XviD.avi 627.258 MB
SaMpLe.avi 12.267 MB
Torrent Tracked by MastiTorrents.com.txt 369 B
Gathering some info...

Register and log in Isohunt and see no captcha anymore!

4000 symbols left
Hash 4051505377AEA92A0E489FA63BE3F6F6CA25EFD6

Related torrents for "Break Free Bipasha Basu (2012) DVDRip XviD"

Torrent search:

dvdrip 2012