imdb
rating

7.4
Lincoln

Lincoln (2012)

Drama, War

Full description

Lincoln 2012 DVDSCR XViD AC3-FooKaS

Size 2.766 GB   34 seeders     Added 2012-12-27 02:40:33

Stream torrent
Starting‥ You need BitLord! Get it from BitLord.com
To download or stream you need BitLord. Visit them at BitLord.com
Format: AVI
Format/Info: Audio Video Interleave
Format profile: OpenDML
File size: 2.55 GiB
Duration: 2h 29mn
Overall bit rate: 2 438 Kbps
Writing library: VirtualDub build 32842/release

[b]Video -[/b]

ID: 0
Format: MPEG-4 Visual
Format profile: Advanced Simple@L5
Format settings, BVOP: 2
Format settings, QPel: No
Format settings, GMC: No warppoints
Format settings, Matrix: Default (H.263)
Muxing mode: Packed bitstream
Codec ID: XVID
Codec ID/Hint: XviD
Duration: 2h 29mn
Bit rate: 2 171 Kbps
Width: 720 pixels
Height: 304 pixels
Display aspect ratio: 2.35:1
Frame rate: 23.976 fps
Color space: YUV
Chroma subsampling: 4:2:0
Bit depth: 8 bits
Scan type: Progressive
Compression mode: Lossy
Bits/(Pixel*Frame): 0.414
Stream size: 2.27 GiB (89%)
Writing library: XviD 64

[b]Audio -[/b]

ID: 1
Format: AC-3
Format/Info: Audio Coding 3
Mode extension: CM (complete main)
Codec ID: 2000
Duration: 2h 29mn
Bit rate mode: Constant
Bit rate: 256 Kbps
Channel(s): 6 channels
Channel positions: Front: L C R, Side: L R, LFE
Sampling rate: 48.0 KHz
Bit depth: 16 bits
Compression mode: Lossy
Stream size: 274 MiB (10%)
Alignment: Aligned on interleaves
Lincoln.2012.DVDSCR.XViD.AC3-FooKaS.avi 2.739 GB
lincoln.nfo 2.958 KB
sample.avi 26.754 MB
Gathering some info...

Register and log in Isohunt and see no captcha anymore!

4000 symbols left
Hash 9CBBD520A3F8C565CD61856A2FA23912FAFAD35F

Related torrents for "Lincoln 2012 DVDSCR XViD AC3-FooKaS"

Torrent search:

screener 2012