Alejandro Sanz - Mi Marciana (h264/mp4)

Size 212.486 MB   0 seeders     Added 2012-12-27 11:00:34

Stream torrent
Starting‥ You need BitLord! Get it from BitLord.com
To download or stream you need BitLord. Visit them at BitLord.com
General

Format                         : MPEG-4
Format profile                 : Base Media
Codec ID                       : isom
File size                      : 203 MiB
Duration                       : 5mn 20s
Overall bit rate mode          : Variable
Overall bit rate               : 5 301 Kbps
Encoded date                   : UTC 2012-12-26 03:39:21
Tagged date                    : UTC 2012-12-26 03:39:21

Video
ID                             : 1
Format                         : AVC
Format/Info                    : Advanced Video Codec
Format profile                 : High@L3.0
Format settings, CABAC         : Yes
Format settings, ReFrames      : 2 frames
Codec ID                       : avc1
Codec ID/Info                  : Advanced Video Coding
Duration                       : 5mn 20s
Bit rate                       : 5 121 Kbps
Maximum bit rate               : 14.3 Mbps
Width                          : 720 pixels
Height                         : 480 pixels
Display aspect ratio           : 16:9
Original display aspect ratio  : 16:9
Frame rate mode                : Constant
Frame rate                     : 25.000 fps
Standard                       : NTSC
Color space                    : YUV
Chroma subsampling             : 4:2:0
Bit depth                      : 8 bits
Scan type                      : Progressive
Bits/(Pixel*Frame)             : 0.593
Stream size                    : 196 MiB (97%)


Audio
ID                             : 2
Format                         : AAC
Format/Info                    : Advanced Audio Codec
Format profile                 : LC
Codec ID                       : 40
Duration                       : 5mn 20s
Bit rate mode                  : Variable
Bit rate                       : 176 Kbps
Maximum bit rate               : 264 Kbps
Channel(s)                     : 2 channels
Channel positions              : Front: L R
Sampling rate                  : 44.1 KHz
Compression mode               : Lossy
Stream size                    : 6.73 MiB (3%)		
AlejandroSanz-MiMarciana-musicvideos-hq.net.mp4 212.486 MB
Gathering some info...

Register and log in Isohunt and see no captcha anymore!

4000 symbols left
Hash 54bd9bce3cdc296053541131e3ab4f80591b9000