imdb
rating

5.8
The Net

The Net (1995)

Action, Crime, Drama, Mystery, Thriller

Full description
quality   dvdrip hd cam

Arcangel-RicoPorSiempre-musicvideos-hq net mp4

Size 74.87 MB   0 seeders     Added 2012-12-27 11:35:24

Stream torrent
Starting‥ You need BitLord! Get it from BitLord.com
To download or stream you need BitLord. Visit them at BitLord.com
General

Format                         : MPEG-4
Format profile                 : Base Media
Codec ID                       : isom
File size                      : 71.4 MiB
Duration                       : 3mn 19s
Overall bit rate mode          : Variable
Overall bit rate               : 2 998 Kbps
Encoded date                   : UTC 2012-12-26 04:23:33
Tagged date                    : UTC 2012-12-26 04:23:33

Video
ID                             : 1
Format                         : AVC
Format/Info                    : Advanced Video Codec
Format profile                 : High@L3.0
Format settings, CABAC         : Yes
Format settings, ReFrames      : 2 frames
Codec ID                       : avc1
Codec ID/Info                  : Advanced Video Coding
Duration                       : 3mn 19s
Bit rate                       : 2 803 Kbps
Maximum bit rate               : 7 146 Kbps
Width                          : 720 pixels
Height                         : 480 pixels
Display aspect ratio           : 16:9
Original display aspect ratio  : 16:9
Frame rate mode                : Constant
Frame rate                     : 23.976 fps
Standard                       : NTSC
Color space                    : YUV
Chroma subsampling             : 4:2:0
Bit depth                      : 8 bits
Scan type                      : Progressive
Bits/(Pixel*Frame)             : 0.338
Stream size                    : 66.7 MiB (93%)


Audio
ID                             : 2
Format                         : AAC
Format/Info                    : Advanced Audio Codec
Format profile                 : LC
Codec ID                       : 40
Duration                       : 3mn 19s
Bit rate mode                  : Variable
Bit rate                       : 192 Kbps
Maximum bit rate               : 212 Kbps
Channel(s)                     : 2 channels
Channel positions              : Front: L R
Sampling rate                  : 44.1 KHz
Compression mode               : Lossy
Stream size                    : 4.57 MiB (6%)		
Arcangel-RicoPorSiempre-musicvideos-hq.net.mp4 74.87 MB
Gathering some info...

Register and log in Isohunt and see no captcha anymore!

4000 symbols left
Hash CEC6139CF4B78E4984D64216D09FE612646E12A4

Related torrents for "Arcangel-RicoPorSiempre-musicvideos-hq net mp4"