imdb
rating

5.8
The Net

The Net (1995)

Action, Crime, Drama, Mystery, Thriller

Full description
quality   dvdrip hd cam

DaddyYankee-Limbo-musicvideos-hq net mp4

Size 160.628 MB   14 seeders     Added 2012-12-27 11:35:29

Stream torrent
Starting‥ You need BitLord! Get it from BitLord.com
To download or stream you need BitLord. Visit them at BitLord.com
General

Format                         : MPEG-4
Format profile                 : Base Media
Codec ID                       : isom
File size                      : 153 MiB
Duration                       : 4mn 14s
Overall bit rate mode          : Variable
Overall bit rate               : 5 048 Kbps
Encoded date                   : UTC 2012-12-26 02:44:16
Tagged date                    : UTC 2012-12-26 02:44:16

Video
ID                             : 1
Format                         : AVC
Format/Info                    : Advanced Video Codec
Format profile                 : High@L3.0
Format settings, CABAC         : Yes
Format settings, ReFrames      : 2 frames
Codec ID                       : avc1
Codec ID/Info                  : Advanced Video Coding
Duration                       : 4mn 14s
Bit rate                       : 4 856 Kbps
Maximum bit rate               : 12.1 Mbps
Width                          : 720 pixels
Height                         : 480 pixels
Display aspect ratio           : 16:9
Original display aspect ratio  : 16:9
Frame rate mode                : Constant
Frame rate                     : 23.976 fps
Standard                       : NTSC
Color space                    : YUV
Chroma subsampling             : 4:2:0
Bit depth                      : 8 bits
Scan type                      : Progressive
Bits/(Pixel*Frame)             : 0.586
Stream size                    : 147 MiB (96%)


Audio
ID                             : 2
Format                         : AAC
Format/Info                    : Advanced Audio Codec
Format profile                 : LC
Codec ID                       : 40
Duration                       : 4mn 14s
Bit rate mode                  : Variable
Bit rate                       : 192 Kbps
Maximum bit rate               : 218 Kbps
Channel(s)                     : 2 channels
Channel positions              : Front: L R
Sampling rate                  : 44.1 KHz
Compression mode               : Lossy
Stream size                    : 5.73 MiB (4%)		
DaddyYankee-Limbo-musicvideos-hq.net.mp4 160.628 MB
Gathering some info...

Register and log in Isohunt and see no captcha anymore!

4000 symbols left
Hash 8738642625F69392B36F81C635023017BC996E48

Related torrents for "DaddyYankee-Limbo-musicvideos-hq net mp4"