SeanPaulFt KellyRowland-HowDeepIsYourLove-musicvideos-hq net mp4

Size 83.934 MB   0 seeders     Added 2012-12-27 11:37:30

Stream torrent
Starting‚Ä• You need BitLord! Get it from 1BitLord.com
To download or stream you need BitLord. Visit them at BitLord.com
General

Format                         : MPEG-4
Format profile                 : Base Media
Codec ID                       : isom
File size                      : 80.0 MiB
Duration                       : 3mn 26s
Overall bit rate mode          : Variable
Overall bit rate               : 3 255 Kbps
Encoded date                   : UTC 2012-12-26 02:55:26
Tagged date                    : UTC 2012-12-26 02:55:26

Video
ID                             : 1
Format                         : AVC
Format/Info                    : Advanced Video Codec
Format profile                 : High@L3.0
Format settings, CABAC         : Yes
Format settings, ReFrames      : 2 frames
Codec ID                       : avc1
Codec ID/Info                  : Advanced Video Coding
Duration                       : 3mn 26s
Bit rate                       : 3 068 Kbps
Maximum bit rate               : 5 363 Kbps
Width                          : 720 pixels
Height                         : 480 pixels
Display aspect ratio           : 16:9
Original display aspect ratio  : 16:9
Frame rate mode                : Constant
Frame rate                     : 23.976 fps
Standard                       : NTSC
Color space                    : YUV
Chroma subsampling             : 4:2:0
Bit depth                      : 8 bits
Scan type                      : Progressive
Bits/(Pixel*Frame)             : 0.370
Stream size                    : 75.4 MiB (94%)


Audio
ID                             : 2
Format                         : AAC
Format/Info                    : Advanced Audio Codec
Format profile                 : LC
Codec ID                       : 40
Duration                       : 3mn 26s
Bit rate mode                  : Variable
Bit rate                       : 183 Kbps
Maximum bit rate               : 212 Kbps
Channel(s)                     : 2 channels
Channel positions              : Front: L R
Sampling rate                  : 44.1 KHz
Compression mode               : Lossy
Stream size                    : 4.51 MiB (6%)		
SeanPaulFt.KellyRowland-HowDeepIsYourLove-musicvideos-hq.net.mp4 83.934 MB
Gathering some info...

Register and log in Isohunt and see no captcha anymore!

4000 symbols left
Hash 14C668927B76EC2812B820123FC93EE45BACE54F