DonOmar-ZumbaCampaignVideo-musicvideos-hq net mp4

Size 168.292 MB   22 seeders     Added 2012-12-27 11:37:36

Stream torrent
Starting‥ You need BitLord! Get it from 1BitLord.com
To download or stream you need BitLord. Visit them at BitLord.com
General

Format                         : MPEG-4
Format profile                 : Base Media
Codec ID                       : isom
File size                      : 160 MiB
Duration                       : 3mn 54s
Overall bit rate mode          : Variable
Overall bit rate               : 5 750 Kbps
Encoded date                   : UTC 2012-12-26 02:50:33
Tagged date                    : UTC 2012-12-26 02:50:33

Video
ID                             : 1
Format                         : AVC
Format/Info                    : Advanced Video Codec
Format profile                 : High@L3.0
Format settings, CABAC         : Yes
Format settings, ReFrames      : 2 frames
Codec ID                       : avc1
Codec ID/Info                  : Advanced Video Coding
Duration                       : 3mn 54s
Bit rate                       : 5 560 Kbps
Maximum bit rate               : 8 821 Kbps
Width                          : 720 pixels
Height                         : 480 pixels
Display aspect ratio           : 16:9
Original display aspect ratio  : 16:9
Frame rate mode                : Constant
Frame rate                     : 23.976 fps
Standard                       : NTSC
Color space                    : YUV
Chroma subsampling             : 4:2:0
Bit depth                      : 8 bits
Scan type                      : Progressive
Bits/(Pixel*Frame)             : 0.671
Stream size                    : 155 MiB (97%)


Audio
ID                             : 2
Format                         : AAC
Format/Info                    : Advanced Audio Codec
Format profile                 : LC
Codec ID                       : 40
Duration                       : 3mn 54s
Bit rate mode                  : Variable
Bit rate                       : 188 Kbps
Maximum bit rate               : 224 Kbps
Channel(s)                     : 2 channels
Channel positions              : Front: L R
Sampling rate                  : 44.1 KHz
Compression mode               : Lossy
Stream size                    : 5.24 MiB (3%)		
DonOmar-ZumbaCampaignVideo-musicvideos-hq.net.mp4 168.292 MB
Gathering some info...

Register and log in Isohunt and see no captcha anymore!

4000 symbols left
Hash 58AB9B7DC257C50D4594460BD5952D8B55D1500A