imdb
rating

7.0
The Angels' Share

The Angels' Share (2012)

Comedy

Full description
quality   bd x264 hd dvdr dvdrip fullhd

The Angels' Share 2012 720p BluRay DD5 1 x264-EbP

Size 6.43 GB   7 seeders     Added 2012-12-27 13:40:26

Stream torrent
Starting‥ You need BitLord! Get it from BitLord.com
To download or stream you need BitLord. Visit them at BitLord.com
Narrowly avoiding jail, new dad Robbie vows to turn over a new leaf. A visit to a whisky distillery inspires him and his mates to seek a way out of their hopeless lives.

General 
Unique ID : 191092353682923749553480669469351467579 (0x8FC30C71B6C8AE5FB65EB7E6AB35DA3B) 
Complete name : The.Angels'.Share.2012.720p.BluRay.DD5.1.x264-EbP.mkv 
Format : Matroska 
Format version : Version 2 
File size : 5.99 GiB 
Duration : 1h 41mn 
Overall bit rate : 8 478 Kbps 
Encoded date : UTC 2012-10-28 13:01:38 
Writing application : mkvmerge v5.7.0 ('The Whirlwind') built on Jul 8 2012 20:08:51 
Writing library : libebml v1.2.3 + libmatroska v1.3.0 

Video 
ID : 1 
Format : AVC 
Format/Info : Advanced Video Codec 
Format profile : High@L4.1 
Format settings, CABAC : Yes 
Format settings, ReFrames : 9 frames 
Codec ID : V_MPEG4/ISO/AVC 
Duration : 1h 41mn 
Bit rate : 7 669 Kbps 
Width : 1 280 pixels 
Height : 692 pixels 
Display aspect ratio : 1.85:1 
Frame rate : 23.976 fps 
Color space : YUV 
Chroma subsampling : 4:2:0 
Bit depth : 8 bits 
Scan type : Progressive 
Bits/(Pixel*Frame) : 0.361 
Stream size : 5.42 GiB (90%) 
Writing library : x264 core 125 r2200 999b753 
Encoding settings : cabac=1 / ref=9 / deblock=1:-3:-3 / analyse=0x3:0x113 / me=tesa / subme=11 / psy=1 / psy_rd=1.15:0.00 / mixed_ref=1 / me_range=16 / chroma_me=1 / trellis=2 / 8x8dct=1 / cqm=0 / deadzone=21,11 / fast_pskip=0 / chroma_qp_offset=-2 / threads=12 / lookahead_threads=2 / sliced_threads=0 / nr=0 / decimate=0 / interlaced=0 / bluray_compat=0 / constrained_intra=0 / bframes=9 / b_pyramid=2 / b_adapt=2 / b_bias=0 / direct=3 / weightb=1 / open_gop=0 / weightp=2 / keyint=250 / keyint_min=23 / scenecut=40 / intra_refresh=0 / rc=crf / mbtree=0 / crf=17.1 / qcomp=0.70 / qpmin=0 / qpmax=69 / qpstep=4 / ip_ratio=1.40 / pb_ratio=1.30 / aq=1:0.70 
Language : English 
Default : Yes 
Forced : No 

Audio 
ID : 2 
Format : AC-3 
Format/Info : Audio Coding 3 
Mode extension : CM (complete main) 
Format settings, Endianness : Big 
Codec ID : A_AC3 
Duration : 1h 41mn 
Bit rate mode : Constant 
Bit rate : 640 Kbps 
Channel(s) : 6 channels 
Channel positions : Front: L C R, Side: L R, LFE 
Sampling rate : 48.0 KHz 
Bit depth : 16 bits 
Compression mode : Lossy 
Stream size : 463 MiB (8%) 
Language : English 
Default : Yes 
Forced : No 

Menu 
00:00:00.000 : en:00:00:00.000 
00:07:25.195 : en:00:07:25.195 
00:15:47.572 : en:00:15:47.572 
00:21:52.186 : en:00:21:52.186 
00:29:00.197 : en:00:29:00.197 
00:40:40.980 : en:00:40:40.980 
00:47:06.323 : en:00:47:06.323 
00:54:32.811 : en:00:54:32.811 
01:04:44.380 : en:01:04:44.380 
01:13:45.588 : en:01:13:45.588 
01:27:20.610 : en:01:27:20.610 
01:39:20.413 : en:01:39:20.413 

		
The.Angels'.Share.2012.720p.BluRay.DD5.1.x264-EbP.mkv 6.43 GB
Gathering some info...

Register and log in Isohunt and see no captcha anymore!

4000 symbols left
Hash F9BA8BE62973A6AF8E579F998E06C841A9063BC1

Related torrents for "The Angels' Share 2012 720p BluRay DD5 1 x264-EbP"

Torrent search:

x264 hd 2012 bd