imdb
rating

8.3
The Lost Room

The Lost Room (2006)

Sci-Fi

Full description

The Lost Room - The Complete Series [2006, 720p]

Size 15.277 GB   0 seeders     Added 2012-12-27 19:34:44

Stream torrent
Starting‥ You need BitLord! Get it from BitLord.com
To download or stream you need BitLord. Visit them at BitLord.com
 http://www.imdb.com/title/tt1258197/
Source: Exam 2009 720p BluRay x264-AVCHD Thanks!
Subs: Arabic, Brazilian, Czech, Danish, Dutch, English, Farsi-Persian, French, Greek, Hebrew, Hungarian, Indonesian, Italian, Macedonian, Norwegian, Portuguese, Romanian, Servian, Slovenian, Spanish and Turkish.
Sample and Screens included.
General
Complete name                            : Exam-720p MP4 AAC x264 BRRip 2009-CC.mp4
Format                                   : MPEG-4
Format profile                           : Base Media
Codec ID                                 : isom
File size                                : 2.80 GiB
Duration                                 : 1h 36mn
Overall bit rate mode                    : Variable
Overall bit rate                         : 4 137 Kbps
Encoded date                             : UTC 2012-12-21 15:17:38
Video
ID                                       : 1
Format                                   : AVC
Format/Info                              : Advanced Video Codec
Format profile                           : High@L4.1
Format settings, CABAC                   : Yes
Format settings, ReFrames                : 5 frames
Codec ID                                 : avc1
Codec ID/Info                            : Advanced Video Coding
Duration                                 : 1h 36mn
Bit rate                                 : 3 783 Kbps
Maximum bit rate                         : 33.5 Mbps
Width                                    : 1 280 pixels
Height                                   : 544 pixels
Display aspect ratio                     : 2.35:1
Frame rate mode                          : Variable
Frame rate                               : 25.000 fps
Minimum frame rate                       : 20.000 fps
Maximum frame rate                       : 25.000 fps
Color space                              : YUV
Chroma subsampling                       : 4:2:0
Bit depth                                : 8 bits
Scan type                                : Progressive
Bits/(Pixel*Frame)                       : 0.217
Stream size                              : 2.54 GiB (91%)
Writing library                          : x264 core 112
Audio
ID                                       : 2
Format                                   : AAC
Format/Info                              : Advanced Audio Codec
Format profile                           : LC
Codec ID                                 : 40
Duration                                 : 1h 36mn
Bit rate mode                            : Variable
Bit rate                                 : 384 Kbps
Maximum bit rate                         : 708 Kbps
Channel(s)                               : 6 channels
Channel positions                        : Front: L C R, Side: L R, LFE
Sampling rate                            : 48.0 KHz
Compression mode                         : Lossy
Delay relative to video                  : 80ms
Stream size                              : 266 MiB (9%)
Enjoy...
Requested by SecretMythFanBoy 
Coming soon: Blade Trilogy, Interview with the Vampire, Apocalypse Hitler, Forrest Gump and more...		
The.Lost.Room.S01E01.The.Key.HDTVRip.720p.Rus.Eng.mkv 2.548 GB
The.Lost.Room.S01E02.The.Clock.HDTVRip.720p.Rus.Eng.mkv 2.541 GB
The.Lost.Room.S01E03.The.Comb.HDTVRip.720p.Rus.Eng.mkv 2.548 GB
Gathering some info...

Register and log in Isohunt and see no captcha anymore!

4000 symbols left
Hash 5B9FDD7116C24EFFCF6F714FB6B716A6DFB68E3B

Related torrents for "The Lost Room - The Complete Series [2006, 720p]"

Torrent search:

2006 hd