imdb
rating

7.5
Cloud Atlas

Cloud Atlas (2012)

Drama, Science Fiction

Full description
quality   screener fullhd bd dvdrip hd x264

Cloud Atlas [2012]BRrip-DarkNova

Size 1.36 GB   3 seeders     Added 2012-12-28 17:40:17

Stream torrent
Starting‥ You need BitLord! Get it from BitLord.com
To download or stream you need BitLord. Visit them at BitLord.com
[b][color=orange][size=200]Cloud Atlas (2012)[/size][/color][/b]

[img]image[/img]

[img]image[/img]

Cloud Atlas explores how the actions and consequences of individual lives impact one another throughout the past, the present and the future. Action, mystery and romance weave dramatically through the story as one soul is shaped from a killer into a hero and a single act of kindness ripples across centuries to inspire a revolution in the distant future. Each member of the ensemble appears in multiple roles as the stories move through time. -- (C) Warner Bros.

R, 2 hr. 43 min.

Drama, Science Fiction & Fantasy

Directed By: Lana Wachowski , Tom Tykwer

Written By: Tom Tykwer, Lana Wachowski, Andy Wachowski

In Theaters: Oct 26, 2012 Wide

On DVD: Feb 5, 2013

US Box Office:$26.6M

Warner Bros. Pictures

[img]image[/img]

General

Complete name : Cloud Atlas [2012]BRrip-DarkNova.avi
Format : AVI
Format/Info : Audio Video Interleave
Format profile : OpenDML
File size : 1.27 GiB
Duration : 2h 52mn
Overall bit rate : 1 054 Kbps

Video
ID : 0
Format : AVC
Format/Info : Advanced Video Codec
Format profile : High@L4.1
Format settings, CABAC : Yes
Format settings, ReFrames : 8 frames
Codec ID : H264
Duration : 2h 52mn
Bit rate : 923 Kbps
Width : 1 280 pixels
Height : 532 pixels
Display aspect ratio : 2.40:1
Frame rate : 23.976 fps
Color space : YUV
Chroma subsampling : 4:2:0
Bit depth : 8 bits
Scan type : Progressive
Bits/(Pixel*Frame) : 0.057
Stream size : 1.09 GiB (86%)
Writing library : x264 core 129 r2230 1cffe9f


Audio
ID : 1
Format : MPEG Audio
Format version : Version 1
Format profile : Layer 3
Mode : Joint stereo
Mode extension : MS Stereo
Codec ID : 55
Codec ID/Hint : MP3
Duration : 2h 52mn
Bit rate mode : Constant
Bit rate : 128 Kbps
Channel(s) : 2 channels
Sampling rate : 44.1 KHz
Compression mode : Lossy
Stream size : 158 MiB (12%)
Alignment : Aligned on interleaves
Interleave, duration : 26 ms (0.63 video frame)
Writing library : LAME3.98.2

[img]image[/img]

[img]image[/img]

The best SeedBox experience ever [url=http://www.admin-hosting.com/securex/aff.php?aff=064] dentoo SeedBoxes[/url]
Cloud Atlas [2012]BRrip-DarkNova.avi 1.36 GB
Cloud Atlas [2012]BRrip-DarkNova.srt 110.064 KB
Cloud Atlas [2012]BRrip-DarkNova[eng].srt 165.994 KB
Gathering some info...

Register and log in Isohunt and see no captcha anymore!

4000 symbols left
Hash 98575C040FFA4F800D3A4E610CB37A50CEB29618

Related torrents for "Cloud Atlas [2012]BRrip-DarkNova"

Torrent search:

2012 bd