TRON .2012.DVDrip.Xvid

Size 755.906 MB   0 seeders     Added 2012-12-28 19:32:56

To download or stream you need BitLord. Visit them at BitLord.com
For download use the link :

Format                           : AVI
Format/Info                      : Audio Video Interleave
Format profile                   : OpenDML
Overall bit rate                 : 1 800 Kbps
Writing application              : VirtualDubMod 1.5.10.2 (build 2542/release)
Writing library                  : VirtualDubMod build 2542/release

[b]Video[/b]
Format                           : MPEG-4 Visual
Format settings, BVOP            : Yes
Format settings, QPel            : No
Format settings, Matrix          : Default (MPEG)
Codec ID                         : XVID
Codec ID/Hint                    : XviD
Bit rate                         : 1 411 Kbps
Width                            : 640 pixels
Height                           : 272 pixels
Display aspect ratio             : 2.35:1
Frame rate                       : 23.976 fps
Resolution                       : 24 bits
Colorimetry                      : 4:2:0
Scan type                        : Progressive
Bits/(Pixel*Frame)               : 0.338
Stream size                      : 1.03 GiB (78%)

[b]Audio[/b]
Format                           : AC-3
Format/Info                      : Audio Coding 3
Codec ID                         : 2000
Bit rate mode                    : Constant
Bit rate                         : 384 Kbps
Channel(s)                       : 6 channels
Channel positions                : Front: L C R, Surround: L R, LFE
Sampling rate                    : 48.0 KHz
Stream size                      : 287 MiB (21%)
Alignment                        : Aligned on interleaves
Interleave, duration             : 64 ms (1.53 video frames)
Interleave, preload duration     : 192 ms
TRON .2012.DVDrip.Xvid/Dmt Nfo.txt 496 B
TRON .2012.DVDrip.Xvid/Torrent Downloaded From downloadhindimovies.in.txt 497 B
TRON .2012.DVDrip.Xvid/Torrent downloaded from h33t.com.txt 498 B
Gathering some info...

Register and log in Isohunt and see no captcha anymore!

4000 symbols left
Hash 980cb96e2cfdc95e039b9dd8507671bc77f486e2

Related torrents for "TRON .2012.DVDrip.Xvid"

Torrent search:

2012