imdb
rating

7.7
Awkward.

Awkward. (2011)

Comedy, Drama

Full description

Awkward S02E12 WEB-DL XViD-Ralf DeiX [Audio Eng / Lektor PL]

Size 244.345 MB   0 seeders     Added 2012-12-28 20:01:36

Stream torrent
Starting‥ You need BitLord! Get it from 1BitLord.com
To download or stream you need BitLord. Visit them at BitLord.com
Tytuł PL: ..:: Inna ::..
Tytuł : ..:: Awkward ::..

Produkcja: USA
Gatunek: Komedia
Data premiery: 19 07 2011
Reżyseria: Millicent Shelton, Ryan Shiraki
Zdjęcia: Eric Haase
Stacja telewizyjna: MTV
Czas trwania odcinka: 20 min.
http://www.filmweb.pl/serial/Inna-2011-578173

Jenna Hamilton to zwykła, nieco zakompleksiona, amerykańska nastolatka. Chciałaby być popularna w szkole, ale brakuje jej odwagi i przebojowości. Wyróżnia ją to, że wieczorami bloguje o swoich problemach i rozterkach. Tak było do tej pory, bo w serialu poznajemy Jennę w momencie, w którym przypadkowo ulega niegroźnemu wypadkowi, który wygląda... jak próba samobójcza. Od tego momentu życie Jenny zaczyna się zmieniać – zaczyna na niej ciążyć stygmat dziewczyny z poważnymi problemami, co budzi zainteresowanie dzieciaków w szkole. I choć nie jest to rodzaj popularności jakiego sobie życzyła, stara się jakoś odnaleźć w tej niewątpliwie dziwnej sytuacji. 

O B S A D A:

Ashley Rickards ... Jenna Hamilton
Nikki Deloach ... Lacey Hamilton
Beau Mirchoff ... Matty McKibben
Mike Faiola ... Kevin Hamilton
Brett Davern ... Jake
Greer Grammer ... Lissa
Desi Lydic ... Valerie Marks
Shanica Knowles ... Michelle
Jillian Rose Reed ... Tamara
Janelle Velasquez ... Karli

Awkward.S02E12.PL.DL.WEB-DL.XViD-Ralf.DeiX.avi

Format : AVI
Format/Info : Audio Video Interleave
File size : 233 MiB
Duration : 21mn 14s
Overall bit rate : 1 534 Kbps
Writing application : VirtualDubMod 1.5.10.2 (build 2540/release)
Writing library : VirtualDubMod build 2540/release

Video
ID : 0
Format : MPEG-4 Visual
Format profile : Advanced Simple@L5
Format settings, BVOP : 1
Format settings, QPel : No
Format settings, GMC : No warppoints
Format settings, Matrix : Default (H.263)
Muxing mode : Packed bitstream
Codec ID : XVID
Codec ID/Hint : XviD
Duration : 21mn 14s
Bit rate : 1 264 Kbps
Width : 720 pixels
Height : 400 pixels
Display aspect ratio : 16:9
Frame rate : 23.976 fps
Color space : YUV
Chroma subsampling : 4:2:0
Bit depth : 8 bits
Scan type : Progressive
Compression mode : Lossy
Bits/(Pixel*Frame) : 0.183
Stream size : 192 MiB (82%)
Writing library : XviD 64

Audio #1
ID : 1
Format : MPEG Audio
Format version : Version 1
Format profile : Layer 3
Mode : Joint stereo
Mode extension : MS Stereo
Codec ID : 55
Codec ID/Hint : MP3
Duration : 21mn 14s
Bit rate mode : Constant
Bit rate : 128 Kbps
Channel(s) : 2 channels
Sampling rate : 48.0 KHz
Compression mode : Lossy
Stream size : 19.4 MiB (8%)
Alignment : Aligned on interleaves
Interleave, duration : 42 ms (1.00 video frame)
Interleave, preload duration : 504 ms
Writing library : LAME3.99r
Encoding settings : -m j -V 4 -q 2 -lowpass 17 -b 128

Audio #2
ID : 2
Format : MPEG Audio
Format version : Version 1
Format profile : Layer 3
Mode : Joint stereo
Mode extension : MS Stereo
Codec ID : 55
Codec ID/Hint : MP3
Duration : 21mn 14s
Bit rate mode : Constant
Bit rate : 128 Kbps
Channel(s) : 2 channels
Sampling rate : 48.0 KHz
Compression mode : Lossy
Stream size : 19.4 MiB (8%)
Alignment : Aligned on interleaves
Interleave, duration : 42 ms (1.00 video frame)
Interleave, preload duration : 504 ms
Writing library : LAME3.99r
Encoding settings : -m j -V 4 -q 2 -lowpass 17 -b 128
Awkward.S02E12.PL.DL.WEB-DL.XViD-Ralf.DeiX.avi 244.345 MB
Gathering some info...

Register and log in Isohunt and see no captcha anymore!

4000 symbols left
Hash 1B5F4CA80BAC7F4CB6B3F78415EEEF775F7D194D

Related torrents for "Awkward S02E12 WEB-DL XViD-Ralf DeiX [Audio Eng / Lektor PL]"