Suddenly It's Magic (2012) DVDRip

Size 733.763 MB   135 seeders     Added 2012-12-29 04:40:40

Stream torrent
Starting‥ You need BitLord! Get it from BitLord.com
To download or stream you need BitLord. Visit them at BitLord.com
Spoken Language: Tagalog

Screens:
 
image
 
image
 
image

[General]
Format: AVI
Format/Info: Audio Video Interleave
File size: 700 MiB
Duration: 1h 47mn
Overall bit rate: 911 Kbps

[Video]
Format: xvid
Codec ID: xvid
Bit rate: 769 Kbps
Width: 720 pixels
Height: 400 pixels
Display aspect ratio: 16:9
Frame rate: 29.970 fps
Bits/(Pixel*Frame): 0.089
Stream size: 591 MiB (84%)

[Audio]
Format: MPEG Audio
Format version: Version 1
Format profile: Layer 3
Mode: Joint stereo
Mode extension: MS Stereo
Codec ID: 55
Codec ID/Hint: MP3
Duration: 1h 47mn
Bit rate mode: Constant
Bit rate: 128 Kbps
Channel(s): 2 channels
Sampling rate: 48.0 KHz
Compression mode: Lossy
Stream size: 98.3 MiB (14%)
Alignment: Aligned on interleaves
Interleave, duration: 24 ms (0.72 video frame)		
Suddenly It's Magic (2012) DVDRip.avi 733.763 MB
Gathering some info...

Register and log in Isohunt and see no captcha anymore!

4000 symbols left
Hash FA76FAB75B1B3C318098D97B523E3D746366B54B