imdb
rating

5.5
Student of the Year

Student of the Year (2012)

Comedy, Drama

Full description

Student of the Year Hindi (2012) 720p DVDRip x264-INDYTorrenTs

Size 848.949 MB   8 seeders     Added 2012-12-29 17:01:40

Stream torrent
Starting‥ You need BitLord! Get it from 1BitLord.com
10
To download or stream you need BitLord. Visit them at BitLord.com
[img]image[/img]

[b]Screenshots:[/b]

[IMG]image[/IMG]
[IMG]image[/IMG]
[IMG]image[/IMG]
[IMG]image[/IMG]
[IMG]image[/IMG]

[code]
Release Date: 19 Oct 2012
Genre: Drama
Language: Hindi
Director: Karan Johar
Producer: Hiroo Johar,	 Gauri Khan
Cast: Sidharth Malhotra as Abhimanyu Singh a.k.a Abhi 
Varun Dhawan as Rohan Nanda a.k.a Ro

Student of the Year movie is the story of Abhimanyu Singh (Sidharth Malhotra) and Rohan Nanda (Varun Dhawan) who traverse the path of competition, envy, triumph, failure, manipulation and heartbreak in their mini-universe of St. Teresa's High School, Dehradun.
[/code]

[code]
Format : MPEG-4
Format profile : Base Media
Codec ID : isom
File size : 804 MiB
Duration : 2h 26mn
Overall bit rate mode : Variable
Overall bit rate : 768 Kbps

Video
ID : 1
Format : MPEG-4 Visual
Format profile : Simple@L1
Format settings, BVOP : No
Format settings, QPel : No
Format settings, GMC : No warppoints
Format settings, Matrix : Default (H.263)
Codec ID : 20
Duration : 2h 26mn
Bit rate : 668 Kbps
Width : 1 280 pixels
Height : 544 pixels
Display aspect ratio : 2.35:1
Original display aspect ratio : 2.35:1
Frame rate mode : Constant
Frame rate : 29.970 fps
Color space : YUV
Chroma subsampling : 4:2:0
Bit depth : 8 bits
Scan type : Progressive
Compression mode : Lossy
Bits/(Pixel*Frame) : 0.032
Stream size : 699 MiB (87%)


Audio
ID : 2
Format : AAC
Format/Info : Advanced Audio Codec
Format profile : LC
Codec ID : 40
Duration : 2h 26mn
Bit rate mode : Variable
Bit rate : 96.0 Kbps
Channel(s) : 2 channels
Channel positions : Front: L R
Sampling rate : 32.0 KHz
Compression mode : Lossy
Stream size : 101 MiB (13%)
[/code]
Student of the Year Hindi (2012) 720p DVDRip x264-INDYTorrenTs/Sample/Sample_StudentoftheYear-iNDYTorrenTs.mp4 3.305 MB
Student of the Year Hindi (2012) 720p DVDRip x264-INDYTorrenTs/Screenshots/vlcsnap-2012-12-29-10h43m06s248.png 376.026 KB
Student of the Year Hindi (2012) 720p DVDRip x264-INDYTorrenTs/Screenshots/vlcsnap-2012-12-29-10h43m33s24.png 625.678 KB
Gathering some info...

Register and log in Isohunt and see no captcha anymore!

4000 symbols left
Hash d31b78d5cd11232be252fbb9e26062610973dca3

Related torrents for "Student of the Year Hindi (2012) 720p DVDRip x264-INDYTorrenTs"

Torrent search:

dvdrip x264 hd hindi 2012