Hanezu 2011 DVDRip XviD AC3 HORiZON-ArtSubs

Size 1.111 GB   0 seeders     Added 2012-12-29 20:01:42

Stream torrent
Starting‥ You need BitLord! Get it from BitLord.com
To download or stream you need BitLord. Visit them at BitLord.com
Title: Hanezu

Country: Japan/2011

Language: Japanese

Subtitle: English

Director: Naomi Kawase

Writers: Masako Bando (based on the novel by), Naomi Kawase (screenplay)

Stars: Tôta Komizu, Hako Ohshima and Tetsuya Akikawa

Plot: The Asuka region is the birthplace of Japan. Here, in ancient times, there were those who fulfilled their lives in the midst of waiting. Modern people, apparently having lost this sense of waiting, seem unable to feel grateful for the present, and cling to the illusion that all things will move constantly forward according to one’s own plan.

In ancient times, there were three small mountains that people believed were inhabited by gods. They were Mt. Unebi, Mt. Miminashi, and Mt. Kagu, and they still stand. In that time, a powerful official used the mountains as a metaphor for a struggle inside his own heart. The mountains were an expression of human karma.

Time has passed into the present. Takumi and Kayoko, inheriting the unfulfilled hopes of their grandparents, live out their lives. Their tale continues a story of the ages, representing the uncountable souls that have accumulated in this land.


Imdb: 
http://www.imdb.com/title/tt1896753/?ref_=fn_al_tt_1


Rip Specs:

General
Complete name                    : Hanezu.2011.DVDRip.XviD.AC3.HORiZON-ArtSubs
Format                           : AVI
Format/Info                      : Audio Video Interleave
Format profile                   : OpenDML
File size                        : 1.04 GiB
Duration                         : 1h 30mn
Overall bit rate                 : 1 633 Kbps

Video
ID                               : 0
Format                           : mp43
Codec ID                         : mp43
Duration                         : 1h 30mn
Bit rate                         : 108 Kbps
Width                            : 720 pixels
Height                           : 480 pixels
Display aspect ratio             : 3:2
Frame rate                       : 29.970 fps
Standard                         : NTSC
Bits/(Pixel*Frame)               : 0.010
Stream size                      : 70.4 MiB (7%)

Audio
ID                               : 1
Format                           : MPEG Audio
Format version                   : Version 1
Format profile                   : Layer 3
Mode                             : Joint stereo
Mode extension                   : MS Stereo
Codec ID                         : 55
Codec ID/Hint                    : MP3
Duration                         : 1h 30mn
Bit rate mode                    : Constant
Bit rate                         : 128 Kbps
Channel(s)                       : 2 channels
Sampling rate                    : 44.1 KHz
Compression mode                 : Lossy
Stream size                      : 1.69 MiB (0%)
Alignment                        : Aligned on interleaves
Interleave, duration             : 91 ms (2.72 video frames)
Writing library                  : LAME3.98.2
		
Hanezu.2011.DVDRip.XviD.AC3.HORiZON-ArtSubs.avi 1.111 GB
Gathering some info...

Register and log in Isohunt and see no captcha anymore!

4000 symbols left
Hash d4152a6eae9d19b160f0e40a4079c474c9eb26ea