imdb
rating

4.8
1920: Evil Returns

1920: Evil Returns (2012)

Horror, Thriller

Full description
quality   x264 dvdrip hd bd fullhd

1920 Evil Returns 2012 DVDRip XviD - Hindi

Size 731.218 MB   0 seeders     Added 2012-12-29 22:00:15

Stream torrent
Starting‥ You need BitLord! Get it from BitLord.com
10
To download or stream you need BitLord. Visit them at BitLord.com
image 
image 
image 
image 
image 
image


Media Info - 
General - 
Format                                   : AVI
Format/Info                              : Audio Video Interleave
File size                                : 697 MiB
Duration                                 : 1h 59mn
Overall bit rate                         : 818 Kbps

Video - 
ID                                       : 0
Format                                   : MPEG-4 Visual
Format profile                           : Advanced Simple@L5
Format settings, BVOP                    : 2
Format settings, QPel                    : No
Format settings, GMC                     : No warppoints
Format settings, Matrix                  : Default (H.263)
Codec ID                                 : XVID
Codec ID/Hint                            : XviD
Duration                                 : 1h 59mn
Bit rate                                 : 681 Kbps
Width                                    : 688 pixels
Height                                   : 288 pixels
Display aspect ratio                     : 2.40:1
Frame rate                               : 29.970 fps
Color space                              : YUV
Chroma subsampling                       : 4:2:0
Bit depth                                : 8 bits
Scan type                                : Progressive
Compression mode                         : Lossy
Bits/(Pixel*Frame)                       : 0.115
Stream size                              : 581 MiB (83%)
Writing library                          : XviD 1.2.1 (UTC 2008-12-04)

Audio - 
Format                                   : AC-3
Format/Info                              : Audio Coding 3
Mode extension                           : CM (complete main)
Format settings, Endianness              : Big
Codec ID                                 : 2000
Duration                                 : 1h 59mn
Bit rate mode                            : Constant
Bit rate                                 : 128 Kbps
Channel(s)                               : 6 channels
Channel positions                        : Front: L C R, Side: L R, LFE
Sampling rate                            : 48.0 KHz
Bit depth                                : 16 bits
Compression mode                         : Lossy
Stream size                              : 109 MiB (16%)
Alignment                                : Aligned on interleaves
Interleave, duration                     : 64 ms (1.92 video frames)
Interleave, preload duration             : 192 ms

Ripper : K@rtik

Seeding 24x7... Extreme Seeding...


Enjoy!
1920 Evil Returns (2012))-DVDRip - XviD - 1CDRip -By K@rtik [ExD ExclusivE].avi 731.218 MB
Gathering some info...

Register and log in Isohunt and see no captcha anymore!

4000 symbols left
Hash a31ace9afa3849e1d57d6eff2bce9b303bd3ae5d

Related torrents for "1920 Evil Returns 2012 DVDRip XviD - Hindi"

Torrent search:

dvdrip hindi 2012