imdb
rating

5.2
Conan the Barbarian

Conan the Barbarian (2011)

Action, Adventure, Fantasy

Full description
quality   dvdrip h264 hd cam telesync ppvr

Conan the Barbarian 2011 DvDRip DrkNova

Size 721.44 MB   12 seeders     Added 2012-12-30 01:20:52

Stream torrent
Starting‥ You need BitLord! Get it from BitLord.com
10
To download or stream you need BitLord. Visit them at BitLord.com
[b][color=orange][size=200]Conan the Barbarian (2011)[/size][/color][/b]

[img]image[/img]

[img]image[/img]

A quest that begins as a personal vendetta for the fierce Cimmerian warrior soon turns into an epic battle against hulking rivals, horrific monsters, and impossible odds, as Conan (Jason Momoa) realizes he is the only hope of saving the great nations of Hyboria from an encroaching reign of supernatural evil. 

R, 1 hr. 52 min.

Action & Adventure, Science Fiction & Fantasy

Directed By: Marcus Nispel

Written By: Thomas Dean Donnelly, Joshua Oppenheimer, Sean Hood, Robert E. Howard

In Theaters: Aug 19, 2011 Wide

On DVD: Nov 22, 2011

US Box Office:$21.3M

Lionsgate

[img]image[/img]

General

Complete name : Conan.the.Barbarian.2011.DvDRip-DarkNova.avi
Format : AVI
Format/Info : Audio Video Interleave
File size : 688 MiB
Duration : 1h 43mn
Overall bit rate : 932 Kbps

Video
ID : 0
Format : AVC
Format/Info : Advanced Video Codec
Format profile : High@L5.1
Format settings, CABAC : Yes
Format settings, ReFrames : 2 frames
Codec ID : H264
Duration : 1h 43mn
Bit rate : 827 Kbps
Width : 632 pixels
Height : 264 pixels
Display aspect ratio : 2.40:1
Frame rate : 25.000 fps
Color space : YUV
Chroma subsampling : 4:2:0
Bit depth : 8 bits
Scan type : Progressive
Bits/(Pixel*Frame) : 0.198
Stream size : 610 MiB (89%)

Audio
ID : 1
Format : MPEG Audio
Format version : Version 1
Format profile : Layer 3
Codec ID : 55
Codec ID/Hint : MP3
Duration : 1h 43mn
Bit rate mode : Constant
Bit rate : 96.0 Kbps
Channel(s) : 2 channels
Sampling rate : 44.1 KHz
Compression mode : Lossy
Stream size : 70.8 MiB (10%)
Alignment : Split accross interleaves
Interleave, duration : 41 ms (1.02 video frame)
Interleave, preload duration : 91 ms
Writing library : LAMELAME_MAJOR_VERSI

[img]image[/img]

[img]image[/img]

The best SeedBox experience ever [url=http://www.admin-hosting.com/securex/aff.php?aff=064] dentoo SeedBoxes[/url]
Conan.the.Barbarian.2011.DvDRip-DarkNova.avi 721.34 MB
Conan.the.Barbarian.2011.DvDRip-DarkNova.srt 40.497 KB
Conan.the.Barbarian.2011.DvDRip-DarkNova[eng].srt 41.122 KB
Gathering some info...

Register and log in Isohunt and see no captcha anymore!

4000 symbols left
Hash BF3DFBAB93F968EB04328091A66F004B7590330A

Related torrents for "Conan the Barbarian 2011 DvDRip DrkNova"

Torrent search:

dvdrip 2011