imdb
rating

6.2
Tai Chi Hero

Tai Chi Hero (2012)

Action, Adventure

Full description
quality   x264 hd bd dvdr fullhd dvd dvdrip

Tai Chi Hero 2012 BRRiP XviD AC-3 avi

Size 731.777 MB   8 seeders     Added 2012-12-30 01:36:36

Stream torrent
Starting‥ You need BitLord! Get it from BitLord.com
To download or stream you need BitLord. Visit them at BitLord.com
General


                        Tai.Chi.Hero.2012.BRRiP.XviD.AC-3.avi


Format                                   : AVI
Format/Info                              : Audio Video Interleave
File size                                : 698 MiB
Duration                                 : 1h 42mn
Overall bit rate                         : 951 Kbps

Video
ID                                       : 0
Format                                   : MPEG-4 Visual
Format profile                           : Advanced Simple@L5
Format settings, BVOP                    : 4
Format settings, QPel                    : Yes
Format settings, GMC                     : No warppoints
Format settings, Matrix                  : Default (H.263)
Codec ID                                 : XVID
Codec ID/Hint                            : XviD
Duration                                 : 1h 42mn
Bit rate                                 : 783 Kbps
Width                                    : 720 pixels
Height                                   : 304 pixels
Display aspect ratio                     : 2.35:1
Frame rate                               : 23.976 fps
Color space                              : YUV
Chroma subsampling                       : 4:2:0
Bit depth                                : 8 bits
Scan type                                : Progressive
Compression mode                         : Lossy
Bits/(Pixel*Frame)                       : 0.149
Stream size                              : 575 MiB (82%)
Writing library                          : XviD 1.2.1 (UTC 2008-12-04)

Audio
ID                                       : 1
Format                                   : AC-3
Format/Info                              : Audio Coding 3
Mode extension                           : CM (complete main)
Format settings, Endianness              : Big
Codec ID                                 : 2000
Duration                                 : 1h 42mn
Bit rate mode                            : Constant
Bit rate                                 : 160 Kbps
Channel(s)                               : 6 channels
Channel positions                        : Front: L C R, Side: L R, LFE
Sampling rate                            : 48.0 KHz
Bit depth                                : 16 bits
Compression mode                         : Lossy
Stream size                              : 117 MiB (17%)
Alignment                                : Aligned on interleaves
Interleave, duration                     : 64 ms (1.53 video frames)
Interleave, preload duration             : 192 ms
Language                                 : Mandarin 

Text
ID                                       : 2
Duration                                 : 1h 42mn
Bit rate                                 : 102 bps
Stream size                              : 77.0 KiB (0%)
Language                                 : English

		
Tai.Chi.Hero.2012.BRRiP.XviD.AC-3.avi 731.777 MB
Gathering some info...

Register and log in Isohunt and see no captcha anymore!

4000 symbols left
Hash F04967455F5D58FE7D126A9DB49567C44A269099

Related torrents for "Tai Chi Hero 2012 BRRiP XviD AC-3 avi"

Torrent search:

2012 bd