The Season

The Season (2014)

Full description

Naruto Shippuden Season 9 (Ep 176-196) 480p [Cursator]

Size 873.458 MB   0 seeders     Added 2012-12-30 09:52:18

Stream torrent
Starting‥ You need BitLord! Get it from 1BitLord.com
To download or stream you need BitLord. Visit them at BitLord.com
[center] [size=13]All The Episodes of Naruto Shippuden Season 9 (Ep 176-196) at 480p Video Quality :)

Please seed after you download.
[/size]

--------------------------------------------------------------------------------

[size=48][color=#3708E3][b]Cover[/color][/size][/b]
--------------------------------------------------------------------------------
        
[img]image[/img]
--------------------------------------------------------------------------------

[img]image[/img]
---------------------------------------------------------------------------------

[size=13]Torrent Statistics[/size]

[url=http://www.torrent-stats.info][img]image[/img][/url]
----------------------------------------------------------------------------------

[size=13]General
--------

Format                                   : MPEG-4
Format profile                           : Base Media
Codec ID                                 : isom
File size                                : 25.2 MiB
Duration                                 : 23mn 9s
Overall bit rate mode                    : Variable
Overall bit rate                         : 152 Kbps
Encoded date                             : UTC 2011-02-11 07:31:02
Tagged date                              : UTC 2011-02-11 07:31:02


[img]image[/img]
---------------------------------------

ID                                       : 1
Format                                   : AVC
Format/Info                              : Advanced Video Codec
Format profile                           : High@L3.0
Format settings, CABAC                   : Yes
Format settings, ReFrames                : 8 frames
Codec ID                                 : avc1
Codec ID/Info                            : Advanced Video Coding
Duration                                 : 23mn 9s
Bit rate                                 : 101 Kbps
Maximum bit rate                         : 806 Kbps
Width                                    : 640 pixels
Height                                   : 360 pixels
Display aspect ratio                     : 16:9
Frame rate mode                          : Constant
Frame rate                               : 23.976 fps
Color space                              : YUV
Chroma subsampling                       : 4:2:0
Bit depth                                : 8 bits
Scan type                                : Progressive
Bits/(Pixel*Frame)                       : 0.018
Stream size                              : 16.7 MiB (66%)
Title                                    : Imported with GPAC 0.4.6-DEV (build 1)
Writing library                          : x264 core 92 r1510 33d382a

[img]image[/img]
----------------------------------

ID                                       : 2
Format                                   : AAC
Format/Info                              : Advanced Audio Codec
Format profile                           : LC
Codec ID                                 : 40
Duration                                 : 23mn 9s
Bit rate mode                            : Variable
Bit rate                                 : 48.0 Kbps
Maximum bit rate                         : 95.8 Kbps
Channel(s)                               : 2 channels
Channel positions                        : Front: L R
Sampling rate                            : 44.1 KHz
Compression mode                         : Lossy
Stream size                              : 7.93 MiB (31%)
Encoded date                             : UTC 2011-02-11 07:31:03
Tagged date                              : UTC 2011-02-11 07:31:03


----------------------------------------------------------------------------------

[img]image[/img]
----------------------------------------------------------------------------------
              
[img]image[/img]


              
[img]image[/img]


              
[img]image[/img]


              
[img]image[/img]


              
[img]image[/img][/size]


 
----------------------------------------------------------------------------------

[b][size=48][color=#3708E3]Story[/b][/size][/color]
----------------------------------------------------------------------------------

[size=13]This arc is shown as multiple flashbacks from different characters, such as Iruka remembering the time he first met Naruto and Kakashi remembering when he was appointed as leader of Team 7 from his perspective. The first flashback takes place prior Part I while the rest all take place before the time-skip.
----------------------------------------------------------------------------------

Thank you for downloading. 

Enjoy Watching :)		[/size]
----------------------------------------------------------------------------------

[size=48][color=#3708E3][b]Facebook[/size][/color][/b]
----------------------------------------------------------------------------------

                                                                             [url=http://facebook.com/cursator] [img]image[/img][/url]
                                                        [b]                     [size=36]Find Me on Facebook :)[/size][/b]

or 

[b][size=36]Cursator@ymail.com[/size][/b]
							
[/center]
			
					
								
								
		
Season 9/Cover/Naruto [Cursator].jpg 593.659 KB
Season 9/Naruto Shippuden 176.mp4 38.657 MB
Season 9/Naruto Shippuden 177.mp4 37.121 MB
Gathering some info...

Register and log in Isohunt and see no captcha anymore!

4000 symbols left
Hash 207f0a9cb8139249980ef88645950b281ec01a30

Related torrents for "Naruto Shippuden Season 9 (Ep 176-196) 480p [Cursator]"

Torrent search:

season 09