imdb
rating

4.9
Evil

Evil (2012)

Horror

Full description
quality   hdtv telesync dvdrip x264 dvdr

1920 Evil Returns (2012) 720p DVDRip x264 AC3 ESubs [DDR]

Size 3.386 GB   3 seeders     Added 2012-12-30 17:35:36

Stream torrent
Starting‥ You need BitLord! Get it from BitLord.com
10
To download or stream you need BitLord. Visit them at BitLord.com
DDR Presents

Bollywood Movie

1920: Evil Returns 

(2012)


**720p DVDRip 5.1 AC3 ESubs**

Complete name                            : 720p-dvdrip-1920er-ddr.mkv
Source					 : DVD9 [DDR]
Ripper					 : th3obr0

Format                                   : Matroska
Format version                           : Version 2
File size                                : 3.12 GiB
Duration                                 : 1h 59mn
Overall bit rate                         : 3 748 Kbps
Encoded date                             : UTC 2012-12-30 07:24:50
Writing application                      : mkvmerge v5.7.0 ('The Whirlwind') built on Jul  8 

2012 20:08:51
Writing library                          : libebml v1.2.3 + libmatroska v1.3.0

Video
ID                                       : 1
Format                                   : AVC
Format/Info                              : Advanced Video Codec
Format profile                           : High@L4.2
Format settings, CABAC                   : Yes
Format settings, ReFrames                : 4 frames
Codec ID                                 : V_MPEG4/ISO/AVC
Duration                                 : 1h 59mn
Bit rate                                 : 3 297 Kbps
Width                                    : 1 280 pixels
Height                                   : 544 pixels
Display aspect ratio                     : 2.35:1
Frame rate                               : 29.970 fps
Color space                              : YUV
Chroma subsampling                       : 4:2:0
Bit depth                                : 8 bits
Scan type                                : Progressive
Bits/(Pixel*Frame)                       : 0.158
Stream size                              : 2.69 GiB (86%)
Title                                    : 1920 720p [DDR]
Writing library                          : x264 core 125 r2200 999b753
Default                                  : Yes
Forced                                   : No

Audio
ID                                       : 2
Format                                   : AC-3
Format/Info                              : Audio Coding 3
Mode extension                           : CM (complete main)
Format settings, Endianness              : Big
Codec ID                                 : A_AC3
Duration                                 : 1h 59mn
Bit rate mode                            : Constant
Bit rate                                 : 448 Kbps
Channel(s)                               : 6 channels
Channel positions                        : Front: L C R, Side: L R, LFE
Sampling rate                            : 48.0 KHz
Bit depth                                : 16 bits
Compression mode                         : Lossy
Stream size                              : 382 MiB (12%)
Title                                    : Hindi 5.1 [DDR]
Language                                 : Hindi
Default                                  : Yes
Forced                                   : No
 
image 
image 
image 
image 
image

		
sample/smpl-720p-dvdrip-1920er-ddr.mkv 26.347 MB
screens/190319.png 499.891 KB
screens/20573.png 340.221 KB
Gathering some info...

Register and log in Isohunt and see no captcha anymore!

4000 symbols left
Hash B85E3108201F8980B29C00163043C1EB49F430D7

Related torrents for "1920 Evil Returns (2012) 720p DVDRip x264 AC3 ESubs [DDR]"

Torrent search:

dvdrip x264 hd 2012