K (K-Project) (2012 Anime) (Complete Ep 1-13) [Cursator]

Size 729.207 MB   0 seeders     Added 2012-12-30 19:56:03

Stream torrent
Starting‥ You need BitLord! Get it from 1BitLord.com
To download or stream you need BitLord. Visit them at BitLord.com
[center] [size=13]All The Episodes of K (2012 Anime) aka K-Project (Ep 1-13) at 480p Video Quality :)

Please seed after you download.
[/size]

--------------------------------------------------------------------------------

[size=48][color=#3708E3][b]Cover[/color][/size][/b]
--------------------------------------------------------------------------------
        
[img]image[/img]
--------------------------------------------------------------------------------

[img]image[/img]
---------------------------------------------------------------------------------

[size=13]Torrent Statistics[/size]

[url=http://www.torrent-stats.info][img]image[/img][/url]
----------------------------------------------------------------------------------

[size=13]General
--------

Format                                   : MPEG-4
Format profile                           : Base Media
Codec ID                                 : isom
File size                                : 69.1 MiB
Duration                                 : 24mn 37s
Overall bit rate mode                    : Variable
Overall bit rate                         : 392 Kbps
Encoded date                             : UTC 2012-10-03 20:50:50
Tagged date                              : UTC 2012-10-03 20:50:50


[img]image[/img]
---------------------------------------

ID                                       : 1
Format                                   : AVC
Format/Info                              : Advanced Video Codec
Format profile                           : High@L3.0
Format settings, CABAC                   : Yes
Format settings, ReFrames                : 8 frames
Codec ID                                 : avc1
Codec ID/Info                            : Advanced Video Coding
Duration                                 : 24mn 37s
Bit rate                                 : 324 Kbps
Maximum bit rate                         : 2 121 Kbps
Width                                    : 640 pixels
Height                                   : 360 pixels
Display aspect ratio                     : 16:9
Frame rate mode                          : Constant
Frame rate                               : 23.976 fps
Color space                              : YUV
Chroma subsampling                       : 4:2:0
Bit depth                                : 8 bits
Scan type                                : Progressive
Bits/(Pixel*Frame)                       : 0.059
Stream size                              : 57.1 MiB (83%)
Title                                    : Imported with GPAC 0.4.6-DEV (build 1)
Writing library                          : x264 core 92 r1510 33d382a

[img]image[/img]
----------------------------------

ID                                       : 2
Format                                   : AAC
Format/Info                              : Advanced Audio Codec
Format profile                           : LC
Codec ID                                 : 40
Duration                                 : 24mn 37s
Bit rate mode                            : Variable
Bit rate                                 : 63.9 Kbps
Maximum bit rate                         : 83.3 Kbps
Channel(s)                               : 2 channels
Channel positions                        : Front: L R
Sampling rate                            : 48.0 KHz
Compression mode                         : Lossy
Stream size                              : 11.3 MiB (16%)


----------------------------------------------------------------------------------

[img]image[/img]
----------------------------------------------------------------------------------
              
[img]image[/img]


              
[img]image[/img]


              
[img]image[/img]


              
[img]image[/img]


              
[img]image[/img][/size]


 
----------------------------------------------------------------------------------

[b][size=48][color=#3708E3]Story[/b][/size][/color]
----------------------------------------------------------------------------------

[size=13] Set in a world where history has taken a slightly different course from the one we\'re familiar with, K follows the story of a young boy whose life is caught in a psychic war between seven kings.
----------------------------------------------------------------------------------

Thank you for downloading. 

Enjoy Watching :)		[/size]
----------------------------------------------------------------------------------

[size=48][color=#3708E3][b]Facebook[/size][/color][/b]
----------------------------------------------------------------------------------

                                                                             [url=http://facebook.com/cursator] [img]image[/img][/url]
                                                        [b]                     [size=36]Find Me on Facebook :)[/size][/b]

or 

[b][size=36]Cursator@ymail.com[/size][/b]
							
[/center]
			
					
								
								
		
K/K Ep 01.mp4 72.453 MB
K/K Ep 02.mp4 60.962 MB
K/K Ep 11.mp4 60.751 MB
Gathering some info...

Register and log in Isohunt and see no captcha anymore!

4000 symbols left
Hash cc016708a8c52de6c38e31616e405da3fe1336f4