Black Gold

Black Gold (2008)

Action, Drama, Educational

Full description

Black Gold S01E02 DSR XviD OMiCRON

Size 367.587 MB   3 seeders     Added 2012-12-30 22:43:44

Stream torrent
Starting‥ You need BitLord! Get it from BitLord.com
To download or stream you need BitLord. Visit them at BitLord.com
[img]image[/img]

[img]image[/img]

Black Gold is a reality-documentary television series that chronicles three oil 
drilling rigs in Andrews County, Texas, 30 miles northwest of Odessa. It is partly 
produced by Thom Beers, creator of Deadliest Catch and Ice Road Truckers. The 
Black Gold theme song is sung by country music star Trace Adkins. The title 
"Black Gold" comes from a slang term for oil.

Format : AVI
Format/Info : Audio Video Interleave
File size : 351 MiB
Duration : 43mn 49s
Overall bit rate mode : Variable
Overall bit rate : 1 118 Kbps
Writing application : Nandub v1.0rc2
Writing library : Nandub build 1853/release

Video
ID : 0
Format : MPEG-4 Visual
Format profile : Advanced Simple@L5
Format settings, BVOP : 2
Format settings, QPel : No
Format settings, GMC : No warppoints
Format settings, Matrix : Default (H.263)
Codec ID : XVID
Codec ID/Hint : XviD
Duration : 43mn 49s
Bit rate : 967 Kbps
Width : 512 pixels
Height : 384 pixels
Display aspect ratio : 4:3
Frame rate : 29.970 fps
Color space : YUV
Chroma subsampling : 4:2:0
Bit depth : 8 bits
Scan type : Progressive
Compression mode : Lossy
Bits/(Pixel*Frame) : 0.164
Stream size : 303 MiB (86%)
Writing library : XviD 1.1.2 (UTC 2006-11-01)

Audio
ID : 1
Format : MPEG Audio
Format version : Version 1
Format profile : Layer 3
Mode : Joint stereo
Mode extension : MS Stereo
Codec ID : 55
Codec ID/Hint : MP3
Duration : 43mn 49s
Bit rate mode : Variable
Bit rate : 135 Kbps
Channel(s) : 2 channels
Sampling rate : 48.0 KHz
Compression mode : Lossy
Stream size : 43.2 MiB (12%)
Alignment : Aligned on interleaves
Interleave, duration : 24 ms (0.72 video frame)
Interleave, preload duration : 480 ms
Writing library : LAME3.96 
Encoding settings : -m j -V 4 -q 3 -lowpass 17.5 --abr 135

Black.Gold.S01E02.DSR.XviD-OMiCRON.avi 367.569 MB
Blackgoldlogo.jpg 15.191 KB
Info.txt 3.332 KB
Gathering some info...

Register and log in Isohunt and see no captcha anymore!

4000 symbols left
Hash 7FFDBD674D2ADA2B14FC2C272906C54B5833C69A

Related torrents for "Black Gold S01E02 DSR XviD OMiCRON"

Torrent search:

season 01 episode 02 hdtv