Around the Block .2013.DVDrip.Xvid

Size 755.907 MB   0 seeders     Added 2012-12-31 00:18:42

To download or stream you need BitLord. Visit them at BitLord.com
Format                           : AVI
Format/Info                      : Audio Video Interleave
Format profile                   : OpenDML
Overall bit rate                 : 1 800 Kbps
Writing application              : VirtualDubMod 1.5.10.2 (build 2542/release)
Writing library                  : VirtualDubMod build 2542/release
 
[b]Video[/b]
Format                           : MPEG-4 Visual
Format settings, BVOP            : Yes
Format settings, QPel            : No
Format settings, Matrix          : Default (MPEG)
Codec ID                         : XVID
Codec ID/Hint                    : XviD
Bit rate                         : 1 411 Kbps
Width                            : 640 pixels
Height                           : 272 pixels
Display aspect ratio             : 2.35:1
Frame rate                       : 23.976 fps
Resolution                       : 24 bits
Colorimetry                      : 4:2:0
Scan type                        : Progressive
Bits/(Pixel*Frame)               : 0.338
Stream size                      : 1.03 GiB (78%)
 
[b]Audio[/b]
Format                           : AC-3
Format/Info                      : Audio Coding 3
Codec ID                         : 2000
Bit rate mode                    : Constant
Bit rate                         : 384 Kbps
Channel(s)                       : 6 channels
Channel positions                : Front: L C R, Surround: L R, LFE
Sampling rate                    : 48.0 KHz
Stream size                      : 287 MiB (21%)
Alignment                        : Aligned on interleaves
Interleave, duration             : 64 ms (1.53 video frames)
Interleave, preload duration     : 192 ms
Around the Block .2013.DVDrip.Xvid/Dmt Nfo.txt 497 B
Around the Block .2013.DVDrip.Xvid/Torrent Downloaded From downloadhindimovies.in.txt 498 B
Around the Block .2013.DVDrip.Xvid/Around the Block .2013.DVDrip.Xvid.avi 10.486 MB
Gathering some info...

Register and log in Isohunt and see no captcha anymore!

4000 symbols left
Hash 363952d641fdf40f26a83e1e72586636bc8f7ab1

Related torrents for "Around the Block .2013.DVDrip.Xvid"

Torrent search:

2013