imdb
rating

6.4
John Dies at the End

John Dies at the End (2012)

Comedy, Horror

Full description

John Dies At The End 2012 REAL HDRiP ReadNfo AC3-2 0 XviD-AXED

Size 1.486 GB   0 seeders     Added 2012-12-31 04:00:32

Stream torrent
Starting‥ You need BitLord! Get it from BitLord.com
To download or stream you need BitLord. Visit them at BitLord.com
 image



IMDB:  
http://www.imdb.com/title/tt1783732/

PLOT INFO:
A new street drug that sends its users across time and dimensions has one drawback: some people return as no longer human. Can two college dropouts save humankind from this silent, otherworldly invasion?

MEDIAINFO:
General
Complete name                            : John.Dies.At.The.End.2012.REAL.HDRiP.ReadNfo.AC3-2.0.XviD-AXED.avi
Format                                   : AVI
Format/Info                              : Audio Video Interleave
File size                                : 1.37 GiB
Duration                                 : 1h 39mn
Overall bit rate                         : 1 969 Kbps

Video
ID                                       : 0
Format                                   : MPEG-4 Visual
Format profile                           : Advanced Simple@L5
Format settings, BVOP                    : 2
Format settings, QPel                    : No
Format settings, GMC                     : No warppoints
Format settings, Matrix                  : Default (H.263)
Muxing mode                              : Packed bitstream
Codec ID                                 : XVID
Codec ID/Hint                            : XviD
Duration                                 : 1h 39mn
Bit rate                                 : 1 769 Kbps
Width                                    : 720 pixels
Height                                   : 400 pixels
Display aspect ratio                     : 16:9
Frame rate                               : 23.976 fps
Color space                              : YUV
Chroma subsampling                       : 4:2:0
Bit depth                                : 8 bits
Scan type                                : Progressive
Compression mode                         : Lossy
Bits/(Pixel*Frame)                       : 0.256
Stream size                              : 1.23 GiB (90%)
Writing library                          : XviD 64

Audio
ID                                       : 1
Format                                   : AC-3
Format/Info                              : Audio Coding 3
Mode extension                           : CM (complete main)
Format settings, Endianness              : Big
Codec ID                                 : 2000
Duration                                 : 1h 39mn
Bit rate mode                            : Constant
Bit rate                                 : 192 Kbps
Channel(s)                               : 2 channels
Channel positions                        : Front: L R
Sampling rate                            : 48.0 KHz
Bit depth                                : 16 bits
Compression mode                         : Lossy
Stream size                              : 137 MiB (10%)
Alignment                                : Aligned on interleaves
Interleave, duration                     : 64 ms (1.53 video frames)
Interleave, preload duration             : 192 ms
Title                                    : johndiesattheend




SOURCE: 
720p wmv Digital VOD Rental


ReadNfo NOTES: 
The "HDRiP" that was released earlier is not an HDRiP, obviously, and this one is. Enjoy a release that's not a lie from a group who has proven that their sources are what they claim to be time and time again.

AXED! - The only name to trust for VOD/HDRiP!


 
image 
image 
image 
image
		
John.Dies.At.The.End.2012.REAL.HDRiP.ReadNfo.AC3-2.0.XviD-AXED.avi 1.47 GB
John.Dies.At.The.End.2012.REAL.HDRiP.ReadNfo.AC3-2.0.XviD-AXED.nfo 4.294 KB
SAMPLE.avi 15.93 MB
Gathering some info...

Register and log in Isohunt and see no captcha anymore!

4000 symbols left
Hash 13268048206AA60F4DE47094096149D9C34AB2D4

Related torrents for "John Dies At The End 2012 REAL HDRiP ReadNfo AC3-2 0 XviD-AXED"

Torrent search:

hd 2012