Jericho

Jericho (2006)

Action, Drama

Full description

Jericho S01E03 WEB-DL XviD-RoR [Lektor PL]

Size 368.275 MB   0 seeders     Added 2012-12-31 08:21:08

Stream torrent
Starting‥ You need BitLord! Get it from BitLord.com
To download or stream you need BitLord. Visit them at BitLord.com
Tytuł PL: ..:: Jerycho ::..
Tytuł : ..:: Jericho ::..

Produkcja: USA
Gatunek: Akcja, Dramat, Sci-Fi
Data premiery: 2006-2008
Reżyseria: Jon Turteltaub, Martha Mitchell
Zdjęcia: David Connell , Rick Bota
Czas trwania: 45 min.
http://www.filmweb.pl/serial/Jerycho-2006-338040

Na horyzoncie pojawia się grzyb atomowy, który wywołuje wielkie przerażenie wśród mieszkańców małego i spokojnego tytułowego miasteczka, Jericho w stanie Kansas. Odcięci od reszty świata zastanawiają się czy są jedynymi Amerykanami, którym udało się przeżyć tragiczną katastrofę. Strach przed niepewną przyszłością sprawia, iż mieszkańcy Jericho tracą poczucie bezpieczeństwa, a górę nad racjonalnym zachowaniem biorą emocje. Więzi łączące mieszkańców rozpadają się. Wrażliwi dostają obłędu, osobiste problemy wychodzą na pierwszy plan. Kiedy istnieje zagrożenie, że najgłębiej skrywane tajemnice ujrzą światło dzienne, znajdują się i tacy, którzy odnajdą w sobie moc i staną się bohaterami, o których nikt nie myślał, że jeszcze istnieją. Wraz z rozwojem sytuacji, pojawiają się kolejne teorie spiskowe. Czy mieszkańcy stali się ofiarami ataku nuklearnego? Czy nadszedł wreszcie koniec świata? Jeśli udało Ci się przetrwać armageddon, co dalej? Czy warto dalej żyć? - to czytamy w opisie serialu. 

O B S A D A:

 Skeet Ulrich ... Jake Green
 Lennie James ... Robert Hawkins
 Ashley Scott ... Emily Sullivan
 Kenneth Mitchell ... Eric Green
 Brad Beyer ... Stanley Richmond 
 April Parker-Jones ... Darcy Hawkins
 Alicia Coppola ... Mimi Clark 
 Pamela Reed ... Gail Green

Jericho.S01E03.WEB-DL.XviD-RoR [Lektor PL].avi

Format : AVI
Format/Info : Audio Video Interleave
File size : 351 MiB
Duration : 44mn 48s
Overall bit rate : 1 096 Kbps
Writing application : VirtualDubMod 1.5.10.2 (build 2540/release)
Writing library : VirtualDubMod build 2540/release

Video
ID : 0
Format : MPEG-4 Visual
Format profile : Advanced Simple@L5
Format settings, BVOP : 3
Format settings, QPel : Yes
Format settings, GMC : 3 warppoints
Format settings, Matrix : Default (H.263)
Codec ID : XVID
Codec ID/Hint : XviD
Duration : 44mn 48s
Bit rate : 959 Kbps
Width : 640 pixels
Height : 360 pixels
Display aspect ratio : 16:9
Frame rate : 23.976 fps
Color space : YUV
Chroma subsampling : 4:2:0
Bit depth : 8 bits
Scan type : Progressive
Compression mode : Lossy
Bits/(Pixel*Frame) : 0.174
Stream size : 307 MiB (87%)
Writing library : XviD 1.2.1 (UTC 2008-12-04)

Audio
ID : 1
Format : MPEG Audio
Format version : Version 1
Format profile : Layer 3
Codec ID : 55
Codec ID/Hint : MP3
Duration : 44mn 48s
Bit rate mode : Constant
Bit rate : 128 Kbps
Channel(s) : 2 channels
Sampling rate : 48.0 KHz
Compression mode : Lossy
Stream size : 41.0 MiB (12%)
Alignment : Aligned on interleaves
Interleave, duration : 42 ms (1.00 video frame)
Interleave, preload duration : 504 ms
Writing library : LAME3.98r
Encoding settings : -m s -V 4 -q 2 -lowpass 17 -b 128
Jericho.S01E03.WEB-DL.XviD-RoR [Lektor PL].avi 368.275 MB
Gathering some info...

Register and log in Isohunt and see no captcha anymore!

4000 symbols left
Hash A28A20643D6550292C0CA2F126A261ABB027003D

Related torrents for "Jericho S01E03 WEB-DL XviD-RoR [Lektor PL]"

Torrent search:

season 01 episode 03 web-dl