imdb
rating

8.0
Catch Me If You Can

Catch Me If You Can (2002)

Crime, Drama

Full description
quality   dvdrip x264 hdtv hd bd fullhd h264

[KST VN]Catch Me If You Can 2002 FHD[KSTE] mkv

Size 2.047 GB   22 seeders     Added 2012-12-31 18:37:59

Stream torrent
Starting‥ You need BitLord! Get it from BitLord.com
To download or stream you need BitLord. Visit them at BitLord.com
Vietnamese hard subtittle!


Screens: e


Format                                   : Matroska
Format version                           : Version 2
File size                                : 1.91 GiB
Duration                                 : 2h 20mn
Overall bit rate                         : 1 935 Kbps
Encoded date                             : UTC 2012-12-30 22:08:26
Writing application                      : mkvmerge v5.8.0 (No Sleep / Pillow) built on Sep  2 2012 15:37:04
Writing library                          : libebml v1.2.3 + libmatroska v1.3.0

Video
ID                                       : 1
Format                                   : AVC
Format/Info                              : Advanced Video Codec
Format profile                           : High@L4.1
Format settings, CABAC                   : Yes
Format settings, ReFrames                : 4 frames
Codec ID                                 : V_MPEG4/ISO/AVC
Duration                                 : 2h 20mn
Bit rate                                 : 1 550 Kbps
Width                                    : 1 920 pixels
Height                                   : 1 080 pixels
Display aspect ratio                     : 16:9
Frame rate mode                          : Constant
Frame rate                               : 25.000 fps
Color space                              : YUV
Chroma subsampling                       : 4:2:0
Bit depth                                : 8 bits
Scan type                                : Progressive
Bits/(Pixel*Frame)                       : 0.030
Stream size                              : 1.49 GiB (78%)
Writing library                          : x264 core 129 r2230 1cffe9f
                         

Audio
ID                                       : 2
Format                                   : AC-3
Format/Info                              : Audio Coding 3
Mode extension                           : CM (complete main)
Format settings, Endianness              : Big
Codec ID                                 : A_AC3
Duration                                 : 2h 20mn
Bit rate mode                            : Constant
Bit rate                                 : 384 Kbps
Channel(s)                               : 2 channels
Channel positions                        : Front: L R
Sampling rate                            : 44.1 KHz
Bit depth                                : 16 bits
Compression mode                         : Lossy
Stream size                              : 387 MiB (20%)
Default                                  : Yes
Forced                                   : No-------------------------------------Torrent downloaded from http://thepiratebay.se
[KST.VN]Catch.Me.If.You.Can.2002.FHD[KSTE].mkv 2.047 GB
Gathering some info...

Register and log in Isohunt and see no captcha anymore!

4000 symbols left
Hash 88336A8FC73E5892DBF6D568D73D686748DE109B

Related torrents for "[KST VN]Catch Me If You Can 2002 FHD[KSTE] mkv"

Torrent search:

2002