imdb
rating

7.8
Skyfall

Skyfall (2012)

Action, Adventure, Thriller

Full description

Skyfall (2012) - 720p - DVDscr - Xvid - Ac3 5.1 @ BollyDes!

Size 3.747 GB   34 seeders     Added 2012-12-31 22:40:41

Stream torrent
Starting‥ You need BitLord! Get it from 1BitLord.com
To download or stream you need BitLord. Visit them at BitLord.com
[center][SIZE=230][COLOR="#4B0082"]Skyfall (2012) - 720p - DVDscr - Xvid - Ac3 5.1 @ BollyDes![/COLOR][/SIZE]

[IMG]image[/IMG]
[IMG]image[/IMG]


[IMG]image[/IMG]

[/center]

[CODE]
General
Complete name :Skyfall (2012) - 720p - DVDscr - Xvid - Ac3 5.1 @ BollyDes!
Source : DVD9 [Thanks]
Format : AVI
Format/Info : Audio Video Interleave
Format profile : OpenDML
File size : 3.45 GiB
Duration : 2h 23mn
Overall bit rate : 3 453 Kbps
Writing application : VirtualDubMod 1.5.10.2 (build 2540/release)
Writing library : VirtualDubMod build 2540/release

Video
ID : 0
Format : MPEG-4 Visual
Format profile : Advanced Simple@L5
Format settings, BVOP : 2
Format settings, QPel : No
Format settings, GMC : No warppoints
Format settings, Matrix : Default (H.263)
Muxing mode : Packed bitstream
Codec ID : XVID
Codec ID/Hint : XviD
Duration : 2h 23mn
Bit rate : 2 995 Kbps
Width : 1 280 pixels
Height : 512 pixels
Display aspect ratio : 2.500
Frame rate : 25.000 fps
Color space : YUV
Chroma subsampling : 4:2:0
Bit depth : 8 bits
Scan type : Progressive
Compression mode : Lossy
Bits/(Pixel*Frame) : 0.183
Stream size : 2.99 GiB (87%)
Writing library : XviD 64

Audio
ID : 1
Format : AC-3
Format/Info : Audio Coding 3
Mode extension : CM (complete main)
Codec ID : 2000
Duration : 2h 23mn
Bit rate mode : Constant
Bit rate : 448 Kbps
Channel(s) : 6 channels
Channel positions : Front: L C R, Side: L R, LFE
Sampling rate : 48.0 KHz
Bit depth : 16 bits
Compression mode : Lossy
Stream size : 459 MiB (13%)
Alignment : Split accross interleaves
Interleave, duration : 40 ms (1.00 video frame)
Interleave, preload duration : 500 ms
[/CODE]

[center]

[color=red]---------------------------------------------------------------------------------------------------------------------------[/color]

[size=5][color=red]---:[/color] [color=maroon]Ripper's Note[/color] [color=red]:---[/color][/size]

[color=red]Tried To Get Max Quality, Upscaled from the DVD9, Additional Touching with Source...

""" Resized, Filtered, Sharpend and Tweaked audio *"""

Don't make fool comment without proper checking of ur qweries and issues...[/color]

[color=red]---------------------------------------------------------------------------------------------------------------------------[/color]




[IMG]image[/IMG]

[IMG]image[/IMG]
[IMG]image[/IMG]
[IMG]image[/IMG]
[IMG]image[/IMG]
[IMG]image[/IMG]
[IMG]image[/IMG]
[IMG]image[/IMG]
[IMG]image[/IMG]

[SIZE=150][COLOR="#FF0000"]Sample Included in Torrent[/COLOR][/SIZE]


[url=http://www.imdb.com/title/tt1074638/][IMG]image[/IMG][/url]



[IMG]image[/IMG]
[IMG]image[/IMG]

[IMG]image[/IMG]
[IMG]image[/IMG]
[IMG]image[/IMG]


[url=https://www.facebook.com/Jayp53Torrents][IMG]image[/IMG][/url]

[size=150][color=maroon]See[/color] [color=green]My[/color] [color=blue]Other[/color] [color=fuchsia]Upload[/color][/size]
[url=http://kat.ph/user/Jayp5353/uploads/][u][color=teal]Click Here[/color][/u][/url][/center]

[quote]
[color=purple]This is my Kind effort to provide you movie effectively, If any mistake, forgive me....[/color]
[color=green]All suggestions, instructions, orders by admin etc heartly accepted.....[/color]
[color=olive]If you want any other, Please PM me....[/color][/quote]
Join Us BollyDes!.txt 222 B
Skyfall (2012) - 720p - DVDscr - Xvid - Ac3 5.1 @ BollyDes!.avi 3.707 GB
Torrent Downloaded from www..bollydesi.com.txt 1.237 KB
Gathering some info...

Register and log in Isohunt and see no captcha anymore!

4000 symbols left
Hash A961A5AA05B597CED51FD32C72D183BAA55C012A

Related torrents for "Skyfall (2012) - 720p - DVDscr - Xvid - Ac3 5.1 @ BollyDes!"

Torrent search:

screener hd 2012