[OOTR] Naruto Shippuuden Episodes 47-79 Manga Edit mp4

Size 1.197 GB   4 seeders     Added 2013-01-01 07:30:06

Stream torrent
Starting‥ You need BitLord! Get it from BitLord.com
To download or stream you need BitLord. Visit them at BitLord.com
Naruto Shippuuden Episodes 47-79 

MANGA EDIT  


While I have striven to make this contiguous there are some noticeable jumps between some scenes.

Some parts might seem odd because they are "out of anime" order, where a scene in the manga may follow all at one time, that same scene could be broken up and otherwise presented in the anime timeline.  Some stuff isn't in the manga.  I tried to keep all the fun fight scenes cut in, even if they weren't detailed in the manga.  In the same sense I tried to remove any extraneous backstory or flashbacks, because we've all seen the show and know the backstory...besides the fact that its already over 4hrs long.  Some parts flow better in the anime presentation.  

One key thing you should notice is that most of the fight scenes are much more coherent and do not jump back and forth between different battles and have the small "repeats" removed.

Format                                   : MPEG-4
Codec ID                                 : M4V 
File size                                : 1.11 GiB
Duration                                 : 4h 17mn
Overall bit rate mode                    : Variable
Overall bit rate                         : 620 Kbps
Encoded date                             : UTC 2012-12-31 15:57:08
Tagged date                              : UTC 2012-12-31 15:57:08

Video
ID                                       : 1
Format                                   : AVC
Format/Info                              : Advanced Video Codec
Format profile                           : Baseline@L3.0
Format settings, CABAC                   : No
Format settings, ReFrames                : 2 frames
Codec ID                                 : avc1
Codec ID/Info                            : Advanced Video Coding
Duration                                 : 4h 17mn
Source duration                          : 4h 17mn
Bit rate mode                            : Variable
Bit rate                                 : 493 Kbps
Width                                    : 640 pixels
Height                                   : 480 pixels
Display aspect ratio                     : 4:3
Frame rate mode                          : Variable
Frame rate                               : 23.976 fps
Minimum frame rate                       : 23.976 fps
Maximum frame rate                       : 24.000 fps
Standard                                 : NTSC
Color space                              : YUV
Chroma subsampling                       : 4:2:0
Bit depth                                : 8 bits
Scan type                                : Progressive
Bits/(Pixel*Frame)                       : 0.067
Stream size                              : 906 MiB (79%)
Source stream size                       : 906 MiB (79%)
Language                                 : English
Encoded date                             : UTC 2012-12-31 15:57:08

Audio
ID                                       : 2
Format                                   : AAC
Format/Info                              : Advanced Audio Codec
Format profile                           : LC
Codec ID                                 : 40
Duration                                 : 4h 17mn
Bit rate mode                            : Variable
Bit rate                                 : 126 Kbps
Maximum bit rate                         : 214 Kbps
Channel(s)                               : 2 channels
Channel positions                        : Front: L R
Sampling rate                            : 44.1 KHz
Compression mode                         : Lossy
Stream size                              : 231 MiB (20%)				
[OOTR] Naruto Shippuuden Episodes 47-79 Manga Edit.mp4 1.197 GB
Gathering some info...

Register and log in Isohunt and see no captcha anymore!

4000 symbols left
Hash EAA6AA3F57BDD82A966F2E9EE76938277F803531