imdb
rating

5.5
The Key

The Key (1983)

Drama, Romance

Full description
quality   hdtv x264 fullhd h264

Alicia Keys - Brand New Me (h264/mp4)

Size 72.4 MB   3 seeders     Added 2013-01-01 08:53:52

Stream torrent
Starting‥ You need BitLord! Get it from 1BitLord.com
10
To download or stream you need BitLord. Visit them at BitLord.com
General

Format                         : MPEG-4
Format profile                 : Base Media
Codec ID                       : isom
File size                      : 69.0 MiB
Duration                       : 4mn 41s
Overall bit rate mode          : Variable
Overall bit rate               : 2 060 Kbps
Encoded date                   : UTC 2012-12-29 21:05:03
Tagged date                    : UTC 2012-12-29 21:05:03

Video
ID                             : 1
Format                         : AVC
Format/Info                    : Advanced Video Codec
Format profile                 : High@L3.0
Format settings, CABAC         : Yes
Format settings, ReFrames      : 2 frames
Codec ID                       : avc1
Codec ID/Info                  : Advanced Video Coding
Duration                       : 4mn 41s
Bit rate                       : 1 871 Kbps
Maximum bit rate               : 4 108 Kbps
Width                          : 720 pixels
Height                         : 480 pixels
Display aspect ratio           : 16:9
Original display aspect ratio  : 16:9
Frame rate mode                : Constant
Frame rate                     : 23.976 fps
Standard                       : NTSC
Color space                    : YUV
Chroma subsampling             : 4:2:0
Bit depth                      : 8 bits
Scan type                      : Progressive
Bits/(Pixel*Frame)             : 0.226
Stream size                    : 62.7 MiB (91%)


Audio
ID                             : 2
Format                         : AAC
Format/Info                    : Advanced Audio Codec
Format profile                 : LC
Codec ID                       : 40
Duration                       : 4mn 41s
Bit rate mode                  : Variable
Bit rate                       : 186 Kbps
Maximum bit rate               : 226 Kbps
Channel(s)                     : 2 channels
Channel positions              : Front: L R
Sampling rate                  : 44.1 KHz
Compression mode               : Lossy
Stream size                    : 6.23 MiB (9%)
AliciaKeys-BrandNewMe-musicvideos-hq.net.mp4 72.4 MB
Gathering some info...

Register and log in Isohunt and see no captcha anymore!

4000 symbols left
Hash EF213F2F7039C85AA302469587D271F4E83A3C27

Related torrents for "Alicia Keys - Brand New Me (h264/mp4)"

Torrent search:

h264