imdb
rating

5.9
The One

The One (2001)

Action, Science Fiction, Thriller

Full description
quality   dvdr hdtv dvdrip x264 hd bd fullhd

Ana Isabelle - Mi One And Only (h264/mp4)

Size 148.879 MB   0 seeders     Added 2013-01-01 09:01:48

Stream torrent
Starting‥ You need BitLord! Get it from BitLord.com
To download or stream you need BitLord. Visit them at BitLord.com
General

Format                         : MPEG-4
Format profile                 : Base Media
Codec ID                       : isom
File size                      : 142 MiB
Duration                       : 4mn 45s
Overall bit rate mode          : Variable
Overall bit rate               : 4 166 Kbps
Encoded date                   : UTC 2012-12-29 21:27:44
Tagged date                    : UTC 2012-12-29 21:27:44

Video
ID                             : 1
Format                         : AVC
Format/Info                    : Advanced Video Codec
Format profile                 : High@L3.0
Format settings, CABAC         : Yes
Format settings, ReFrames      : 2 frames
Codec ID                       : avc1
Codec ID/Info                  : Advanced Video Coding
Duration                       : 4mn 45s
Bit rate                       : 3 972 Kbps
Maximum bit rate               : 6 732 Kbps
Width                          : 720 pixels
Height                         : 480 pixels
Display aspect ratio           : 16:9
Original display aspect ratio  : 16:9
Frame rate mode                : Constant
Frame rate                     : 23.976 fps
Standard                       : NTSC
Color space                    : YUV
Chroma subsampling             : 4:2:0
Bit depth                      : 8 bits
Scan type                      : Progressive
Bits/(Pixel*Frame)             : 0.479
Stream size                    : 135 MiB (95%)


Audio
ID                             : 2
Format                         : AAC
Format/Info                    : Advanced Audio Codec
Format profile                 : LC
Codec ID                       : 40
Duration                       : 4mn 45s
Bit rate mode                  : Variable
Bit rate                       : 192 Kbps
Maximum bit rate               : 206 Kbps
Channel(s)                     : 2 channels
Channel positions              : Front: L R
Sampling rate                  : 44.1 KHz
Compression mode               : Lossy
Stream size                    : 6.51 MiB (5%)		
AnaIsabelle-MiOneAndOnly-musicvideos-hq.net.mp4 148.879 MB
Gathering some info...

Register and log in Isohunt and see no captcha anymore!

4000 symbols left
Hash 19de3928a6947afefbcccbbd5db75ae3509d2884

Related torrents for "Ana Isabelle - Mi One And Only (h264/mp4)"

Torrent search:

h264