imdb
rating

6.4
The Perfect Storm

The Perfect Storm (2000)

Drama

Full description
quality   dvdrip fullhd bd hd x264

Benny Benassi - Perfect Storm (h264/mp4)

Size 132.002 MB   0 seeders     Added 2013-01-01 09:00:45

Stream torrent
Starting‥ You need BitLord! Get it from 1BitLord.com
To download or stream you need BitLord. Visit them at BitLord.com
General

Format                         : MPEG-4
Format profile                 : Base Media
Codec ID                       : isom
File size                      : 126 MiB
Duration                       : 3mn 54s
Overall bit rate mode          : Variable
Overall bit rate               : 4 513 Kbps
Encoded date                   : UTC 2012-12-29 21:18:32
Tagged date                    : UTC 2012-12-29 21:18:32

Video
ID                             : 1
Format                         : AVC
Format/Info                    : Advanced Video Codec
Format profile                 : High@L3.0
Format settings, CABAC         : Yes
Format settings, ReFrames      : 2 frames
Codec ID                       : avc1
Codec ID/Info                  : Advanced Video Coding
Duration                       : 3mn 54s
Bit rate                       : 4 321 Kbps
Maximum bit rate               : 10.8 Mbps
Width                          : 720 pixels
Height                         : 480 pixels
Display aspect ratio           : 16:9
Original display aspect ratio  : 16:9
Frame rate mode                : Constant
Frame rate                     : 25.000 fps
Standard                       : NTSC
Color space                    : YUV
Chroma subsampling             : 4:2:0
Bit depth                      : 8 bits
Scan type                      : Progressive
Bits/(Pixel*Frame)             : 0.500
Stream size                    : 121 MiB (96%)


Audio
ID                             : 2
Format                         : AAC
Format/Info                    : Advanced Audio Codec
Format profile                 : LC
Codec ID                       : 40
Duration                       : 3mn 53s
Bit rate mode                  : Variable
Bit rate                       : 192 Kbps
Maximum bit rate               : 236 Kbps
Channel(s)                     : 2 channels
Channel positions              : Front: L R
Sampling rate                  : 44.1 KHz
Compression mode               : Lossy
Stream size                    : 5.27 MiB (4%)		
PinkIsPunkAndBennyBenassi-PerfectStorm-musicvideos-hq.net.mp4 132.002 MB
Gathering some info...

Register and log in Isohunt and see no captcha anymore!

4000 symbols left
Hash 3f7db8489069d7509004e9de9720a349efc37105

Related torrents for "Benny Benassi - Perfect Storm (h264/mp4)"

Torrent search:

h264