imdb
rating

6.2
Killing Them Softly

Killing Them Softly (2012)

Crime, Thriller

Full description
quality   dvdrip dvd screener bd

Killing Them Softly (2012) DVDRip

Size 733.217 MB   4 seeders     Added 2013-01-01 09:40:22

Stream torrent
Starting‥ You need BitLord! Get it from BitLord.com
To download or stream you need BitLord. Visit them at BitLord.com
Killing Them Softly (2012) DVDRip

Screens:
 
image
 
image
 
image

[General]
Format: AVI
Format/Info: Audio Video Interleave
File size: 700 MiB
Duration: 1h 37mn
Overall bit rate: 1 005 Kbps

[Video]
Format: xvid
Codec ID: xvid
Duration: 1h 37mn
Bit rate: 865 Kbps
Width: 720 pixels
Height: 400 pixels
Display aspect ratio: 16:9
Frame rate: 23.976 fps
Bits/(Pixel*Frame): 0.125
Stream size: 601 MiB (86%)

[Audio]
Format: MPEG Audio
Format version: Version 1
Format profile: Layer 3
Mode: Joint stereo
Mode extension: MS Stereo
Codec ID: 55
Codec ID/Hint: MP3
Duration: 1h 37mn
Bit rate mode: Constant
Bit rate: 128 Kbps
Channel(s): 2 channels
Sampling rate: 48.0 KHz
Compression mode: Lossy
Stream size: 89.0 MiB (13%)
Alignment: Aligned on interleaves
Interleave, duration: 24 ms (0.58 video frame)
Killing Them Softly (2012) DVDRip.avi 733.217 MB
Gathering some info...

Register and log in Isohunt and see no captcha anymore!

4000 symbols left
Hash 2676631C9CC950A6F3DAE5DC6EE4F61B5418230A

Related torrents for "Killing Them Softly (2012) DVDRip"

Torrent search:

dvdrip 2012