imdb
rating

6.8
Taylor

Taylor

Full description
quality   hd h264 dvdrip fullhd

Taylor Swift - I Knew You Were Trouble (h264/mp4)

Size 67.847 MB   2 seeders     Added 2013-01-01 09:40:30

Stream torrent
Starting‥ You need BitLord! Get it from 1BitLord.com
10
To download or stream you need BitLord. Visit them at BitLord.com
General

Format                         : MPEG-4
Format profile                 : Base Media
Codec ID                       : isom
File size                      : 64.7 MiB
Duration                       : 5mn 57s
Overall bit rate mode          : Variable
Overall bit rate               : 1 519 Kbps
Encoded date                   : UTC 2012-12-29 21:12:24
Tagged date                    : UTC 2012-12-29 21:12:24

Video
ID                             : 1
Format                         : AVC
Format/Info                    : Advanced Video Codec
Format profile                 : High@L3.0
Format settings, CABAC         : Yes
Format settings, ReFrames      : 2 frames
Codec ID                       : avc1
Codec ID/Info                  : Advanced Video Coding
Duration                       : 5mn 57s
Bit rate                       : 1 327 Kbps
Maximum bit rate               : 2 653 Kbps
Width                          : 720 pixels
Height                         : 480 pixels
Display aspect ratio           : 16:9
Original display aspect ratio  : 16:9
Frame rate mode                : Constant
Frame rate                     : 23.976 fps
Standard                       : NTSC
Color space                    : YUV
Chroma subsampling             : 4:2:0
Bit depth                      : 8 bits
Scan type                      : Progressive
Bits/(Pixel*Frame)             : 0.160
Stream size                    : 56.5 MiB (87%)


Audio
ID                             : 2
Format                         : AAC
Format/Info                    : Advanced Audio Codec
Format profile                 : LC
Codec ID                       : 40
Duration                       : 5mn 57s
Bit rate mode                  : Variable
Bit rate                       : 192 Kbps
Maximum bit rate               : 230 Kbps
Channel(s)                     : 2 channels
Channel positions              : Front: L R
Sampling rate                  : 44.1 KHz
Compression mode               : Lossy
Stream size                    : 8.04 MiB (12%)		
TaylorSwift-IKnewYouWereTrouble-musicvideos-hq.net.mp4 67.847 MB
Gathering some info...

Register and log in Isohunt and see no captcha anymore!

4000 symbols left
Hash 2484551B6B9904B0CDE15F8DC78553F8B6502990

Related torrents for "Taylor Swift - I Knew You Were Trouble (h264/mp4)"

Torrent search:

h264