Chitai - Marathi Natak mp4

Size 321.465 MB   0 seeders     Added 2013-01-01 14:35:36

Stream torrent
Starting‥ You need BitLord! Get it from BitLord.com
To download or stream you need BitLord. Visit them at BitLord.com
image 
image 
image 
image 
image 
image

Info - 
Starring: Ravindra Deodhar, Sunil Dev, Raju Bavadekar, Sunil Jog, Ganesh Karke, Sachin Joshi, Vibhavari Deshpande, Madhuri Mate. 

Writer: Pradeep Tungare. 

Director: Nikhil Mehendale

Synopsis: This is a powerful play presenting the meaning of life and death through the eyes of people working in a Crematorium. It is the last day of work for Kardile who is retiring from his duty of incinerating corpse's at the Crematorium. Joshi and More want to celebrate the occasion and the symmetry's Guruji is on the way to bid farewell to Kardile. In his entire career, Kardile has burned 12,994 bodies and this being his last day, Joshi and More want him to make a record of 13,000. As the day passes the four men face the tragedies of the past and question their existence while a group of protesters revolt to shut down the Crematorium. How does the day end in the crematorium? Can Kardile make the record?

Media Info - 
General
Complete name                  : Chitai - Marathi Natak.mp4
Format                         : MPEG-4
Format profile                 : Base Media / Version 2
Codec ID                       : mp42
File size                      : 307 MiB
Duration                       : 1h 38mn
Overall bit rate mode          : Variable
Overall bit rate               : 433 Kbps

Video
ID                             : 1
Format                         : AVC
Format/Info                    : Advanced Video Codec
Format profile                 : Baseline@L2.1
Format settings, CABAC         : No
Format settings, ReFrames      : 1 frame
Format settings, GOP           : M=1, N=30
Codec ID                       : avc1
Codec ID/Info                  : Advanced Video Coding
Duration                       : 1h 38mn
Bit rate                       : 335 Kbps
Maximum bit rate               : 970 Kbps
Width                          : 480 pixels
Height                         : 360 pixels
Display aspect ratio           : 4:3
Frame rate mode                : Constant
Frame rate                     : 25.000 fps
Color space                    : YUV
Chroma subsampling             : 4:2:0
Bit depth                      : 8 bits
Scan type                      : Progressive
Bits/(Pixel*Frame)             : 0.078
Stream size                    : 237 MiB (77%)

Audio
ID                             : 2
Format                         : AAC
Format/Info                    : Advanced Audio Codec
Format profile                 : LC
Codec ID                       : 40
Duration                       : 1h 38mn
Bit rate mode                  : Variable
Bit rate                       : 96.0 Kbps
Maximum bit rate               : 163 Kbps
Channel(s)                     : 2 channels
Channel positions              : Front: L R
Sampling rate                  : 44.1 KHz
Compression mode               : Lossy
Stream size                    : 67.9 MiB (22%)

Ripper : SaketSaket

Seeding 24x7... Extreme Seeding...


Enjoy!
Chitai - Marathi Natak.mp4 321.465 MB
Gathering some info...

Register and log in Isohunt and see no captcha anymore!

4000 symbols left
Hash A3C28184319938E7FA855EB1561C1927EA83E2DF