imdb
rating

7.8
Perfect Blue

Perfect Blue (1997)

Animation, Thriller

Full description
quality   hd h264 dvdrip bd x264 fullhd

Perfect Blue (1997 Movie) 720p [Cursator]

Size 371.631 MB   2 seeders     Added 2013-01-01 22:13:15

Stream torrent
Starting‥ You need BitLord! Get it from BitLord.com
To download or stream you need BitLord. Visit them at BitLord.com
[center] [size=13]Perfect Blue the Movie! at 720p Video Quality (But I personally think that the resolution is not so well...well I didn\'t expect much from a 1997 movie :)

Please seed after you download.
[/size]

--------------------------------------------------------------------------------

[size=48][color=#3708E3][b]Cover[/color][/size][/b]
--------------------------------------------------------------------------------
        
[img]image[/img]
--------------------------------------------------------------------------------

[img]image[/img]
---------------------------------------------------------------------------------

[size=13]Torrent Statistics[/size]

[url=http://www.torrent-stats.info][img]image[/img][/url]
----------------------------------------------------------------------------------

[size=13]General
--------

Format                                   : Flash Video
File size                                : 350 MiB
Duration                                 : 1h 21mn
Overall bit rate                         : 598 Kbps
Tagged date                              : UTC 2012-02-24 14:37:08


[img]image[/img]
---------------------------------------

Format                                   : AVC
Format/Info                              : Advanced Video Codec
Format profile                           : High@L4.1
Format settings, CABAC                   : Yes
Format settings, ReFrames                : 4 frames
Codec ID                                 : 7
Duration                                 : 1h 21mn
Bit rate                                 : 510 Kbps
Width                                    : 1 280 pixels
Height                                   : 688 pixels
Display aspect ratio                     : 1.85:1
Frame rate mode                          : Constant
Frame rate                               : 23.000 fps
Color space                              : YUV
Chroma subsampling                       : 4:2:0
Bit depth                                : 8 bits
Scan type                                : Progressive
Bits/(Pixel*Frame)                       : 0.025
Stream size                              : 299 MiB (86%)
Writing library                          : x264 core 115

[img]image[/img]
----------------------------------

Format                                   : AAC
Format/Info                              : Advanced Audio Codec
Format profile                           : LC
Codec ID                                 : 10
Duration                                 : 1h 21mn
Bit rate                                 : 80.3 Kbps
Channel(s)                               : 2 channels
Channel positions                        : Front: L R
Sampling rate                            : 44.1 KHz
Compression mode                         : Lossy
Delay relative to video                  : 84ms
Stream size                              : 49.2 MiB (14%)


----------------------------------------------------------------------------------

[img]image[/img]
----------------------------------------------------------------------------------
              
[img]image[/img]


              
[img]image[/img]


              
[img]image[/img]


              
[img]image[/img]


              
[img]image[/img][/size]


 
----------------------------------------------------------------------------------

[b][size=48][color=#3708E3]Story[/b][/size][/color]
----------------------------------------------------------------------------------

[size=13] A retired pop singer turned actress\'s sense of reality is shaken when she is stalked by an obsessed fan and seemingly a ghost of her past.
----------------------------------------------------------------------------------

Thank you for downloading. 

Enjoy Watching :)		[/size]
----------------------------------------------------------------------------------

[size=48][color=#3708E3][b]Facebook[/size][/color][/b]
----------------------------------------------------------------------------------

                                                                             [url=http://facebook.com/cursator] [img]image[/img][/url]
                                                        [b]                     [size=36]Find Me on Facebook :)[/size][/b]

or 

[b][size=36]Cursator@ymail.com[/size][/b]
							
[/center]
			
					
								
								
		
Perfect Blue/Cover/Perfect Blue [Cursator].jpg 831.923 KB
Perfect Blue/Perfect Blue.flv 366.751 MB
Perfect Blue/Screenshots/Perfect Blue 01.png 764.224 KB
Gathering some info...

Register and log in Isohunt and see no captcha anymore!

4000 symbols left
Hash 3edcf4b00282af0ea761a457f15cab768512abc9

Related torrents for "Perfect Blue (1997 Movie) 720p [Cursator]"

Torrent search:

1997 hd